BitTorrentTracker PerecTracker.org
BitTorrentTracker PerecTracker.org
    
Регистрация  ·  Вход
 
 · 
Забыли пароль?

  • Несломленный / Unbroken (Анджелина Джоли / Angelina Jolie) [2014, США, драма, военный, биография, спорт, BDRip 720p] Dub + Sub Rus, Eng + Original Eng

    Ответить на тему
     
    Автор Сообщение

    Flirldrerve

    Создавать темы 17-Апр-2015 22:36

           

    [Цитировать]

    Несломленный / Unbroken
    Страна: США
    Студия: 3 Arts Entertainment
    Жанр: драма, военный, биография, спорт
    Год выпуска: 2014
    Продолжительность: 02:17:28
    Перевод: Профессиональный (дублированный)
    Cубтитры: Rus, Eng
    Оригинальная аудиодорожка: английский
    Режиссер: Анджелина Джоли / Angelina Jolie
    В ролях: Джек О'Коннелл, Донал Глисон, Такамаса Исихара, Гаррет Хедлунд, Финн Уиттрок, Мэттью Крокер, Джай Кортни, Маддалена Искьяле, Винченцо Амато, Джон Магаро
    Описание: Фильм основан на реальных событиях и рассказывает об американце Луи Замперини, который принимал участие в Олимпийских играх 1936 года в Берлине. Он не одержал победу в финальном забеге, но, по какой-то причине, снискал расположение Гитлера, который пригласил его к себе в ложу. Предполагалось, что Замперини примет участие и в следующих Олимпийских играх, но из-за начала Второй мировой войны он был вынужден отправиться на фронт. Его самолет был сбит над Японией, а сам Замперини попал в плен к японцам, где пережил многочисленные пытки. Домой он вернулся уже лишь после окончания войны.

    Тип релиза: BDRip 720p
    Контейнер: MKV
    Видео: MPEG-4 AVC, 5973 Кбит/с, 1280x534, 23,976 fps
    Аудио: Rus, AC3, 448 kb/s (6 ch), 48 kHz
    Аудио 2: Eng, AC3, 640 kb/s (6 ch), 48 kHz
    Формат субтитров: softsub (SRT)

    MediaInfo

    Format : Matroska
    Format version : Version 2
    File size : 6.92 GiB
    Duration : 2h 17mn
    Overall bit rate : 7 204 Kbps
    Movie name : Unbroken (2014) - Release for HDCLUB
    Encoded date : UTC 2015-04-17 15:04:22
    Writing application : mkvmerge v3.4.0 ('Rapunzel') built on May 15 2010 09:38:20
    Writing library : libebml v0.8.0 + libmatroska v0.9.0
    Video
    ID : 1
    Format : AVC
    Format/Info : Advanced Video Codec
    Format profile : High@L4.1
    Format settings, CABAC : Yes
    Format settings, ReFrames : 12 frames
    Codec ID : V_MPEG4/ISO/AVC
    Duration : 2h 17mn
    Bit rate : 5 973 Kbps
    Width : 1 280 pixels
    Height : 534 pixels
    Display aspect ratio : 2.40:1
    Frame rate mode : Constant
    Frame rate : 23.976 fps
    Color space : YUV
    Chroma subsampling : 4:2:0
    Bit depth : 8 bits
    Scan type : Progressive
    Bits/(Pixel*Frame) : 0.364
    Stream size : 5.74 GiB (83%)
    Title : Unbroken (2014) - Release for HDCLUB
    Writing library : x264 core 146 r2538kMod 121396c
    Encoding settings : cabac=1 / ref=12 / deblock=1:-3:-3 / analyse=0x3:0x133 / me=esa / subme=8 / psy=1 / fade_compensate=0.00 / psy_rd=1.00:0.05 / mixed_ref=1 / me_range=24 / chroma_me=1 / trellis=2 / 8x8dct=1 / cqm=0 / deadzone=21,11 / fast_pskip=0 / chroma_qp_offset=-3 / threads=6 / lookahead_threads=3 / sliced_threads=0 / nr=0 / decimate=1 / interlaced=0 / bluray_compat=0 / constrained_intra=0 / fgo=0 / bframes=12 / b_pyramid=2 / b_adapt=2 / b_bias=0 / direct=3 / weightb=1 / open_gop=0 / weightp=2 / keyint=250 / keyint_min=23 / scenecut=40 / intra_refresh=0 / rc_lookahead=60 / rc=crf / mbtree=0 / crf=15.0000 / qcomp=0.73 / qpmin=0 / qpmax=69 / qpstep=4 / vbv_maxrate=62500 / vbv_bufsize=78125 / crf_max=0.0 / nal_hrd=none / filler=0 / ip_ratio=1.30 / pb_ratio=1.20 / aq=1:0.80
    Language : English
    Default : Yes
    Forced : No
    Color primaries : BT.709
    Transfer characteristics : BT.709
    Matrix coefficients : BT.709
    Audio #1
    ID : 2
    Format : AC-3
    Format/Info : Audio Coding 3
    Mode extension : CM (complete main)
    Format settings, Endianness : Big
    Codec ID : A_AC3
    Duration : 2h 17mn
    Bit rate mode : Constant
    Bit rate : 448 Kbps
    Channel(s) : 6 channels
    Channel positions : Front: L C R, Side: L R, LFE
    Sampling rate : 48.0 KHz
    Bit depth : 16 bits
    Compression mode : Lossy
    Stream size : 441 MiB (6%)
    Title : AC3 5.1 @ 448 kbps - DUB, Blu-ray EUR
    Language : Russian
    Default : Yes
    Forced : No
    Audio #2
    ID : 3
    Format : AC-3
    Format/Info : Audio Coding 3
    Mode extension : CM (complete main)
    Format settings, Endianness : Big
    Codec ID : A_AC3
    Duration : 2h 17mn
    Bit rate mode : Constant
    Bit rate : 640 Kbps
    Channel(s) : 6 channels
    Channel positions : Front: L C R, Side: L R, LFE
    Sampling rate : 48.0 KHz
    Bit depth : 16 bits
    Compression mode : Lossy
    Stream size : 629 MiB (9%)
    Title : AC3 5.1 @ 640 kbps
    Language : English
    Default : No
    Forced : No
    Text #1
    ID : 4
    Format : UTF-8
    Codec ID : S_TEXT/UTF8
    Codec ID/Info : UTF-8 Plain Text
    Title : Forced, Blu-ray EUR
    Language : Russian
    Default : Yes
    Forced : No
    Text #2
    ID : 5
    Format : UTF-8
    Codec ID : S_TEXT/UTF8
    Codec ID/Info : UTF-8 Plain Text
    Title : Blu-ray EUR
    Language : Russian
    Default : No
    Forced : No
    Text #3
    ID : 6
    Format : UTF-8
    Codec ID : S_TEXT/UTF8
    Codec ID/Info : UTF-8 Plain Text
    Language : English
    Default : No
    Forced : No
    Text #4
    ID : 7
    Format : UTF-8
    Codec ID : S_TEXT/UTF8
    Codec ID/Info : UTF-8 Plain Text
    Title : SDH
    Language : English
    Default : No
    Forced : No
    Menu
    00:00:00.000 : en:00:00:00.000
    00:08:21.042 : en:00:08:21.042
    00:13:23.803 : en:00:13:23.803
    00:20:05.371 : en:00:20:05.371
    00:27:16.969 : en:00:27:16.969
    00:31:41.066 : en:00:31:41.066
    00:37:22.657 : en:00:37:22.657
    00:44:47.143 : en:00:44:47.143
    00:49:56.952 : en:00:49:56.952
    00:59:48.585 : en:00:59:48.585
    01:10:16.295 : en:01:10:16.295
    01:17:03.911 : en:01:17:03.911
    01:21:50.989 : en:01:21:50.989
    01:28:27.677 : en:01:28:27.677
    01:32:41.514 : en:01:32:41.514
    01:38:30.446 : en:01:38:30.446
    01:44:09.994 : en:01:44:09.994
    01:53:10.617 : en:01:53:10.617
    02:01:39.167 : en:02:01:39.167
    02:11:38.349 : en:02:11:38.349

    Скриншоты

    Торрент-файл заменён на релиз с HDClub.
    Скачать .torrent

    Скачать торрент-файл бесплатно и на максимальной скорости!

    Как скачивать? · Что такое торрент? · Рейтинг и ограничения

    !ВНИМАНИЕ!
    Сайт не распространяет и не хранит электронные версии произведений, а занимается лишь лишь предоставлением доступа к создаваемому пользователями каталогу ссылок на торрент-файлы, которые содержат только списки хеш-сумм, убедительная просьба с жалобами обращаться напрямую к пользователю. Файлы для обмена на трекере предоставлены пользователями сайта, и администрация не несёт ответственности за их содержание. Просьба не заливать файлы, защищенные авторскими правами, а также файлы нелегального содержания!


    _________________
    [Профиль] [ЛС]
    Показать сообщения:    
    Ответить на тему

    Текущее время: Сегодня, в 22:53

    Часовой пояс: GMT + 2



    Вы не можете начинать темы
    Вы не можете отвечать на сообщения
    Вы не можете редактировать свои сообщения
    Вы не можете удалять свои сообщения
    Вы не можете голосовать в опросах
    Вы не можете прикреплять файлы к сообщениям
    Вы не можете скачивать файлы