BitTorrentTracker PerecTracker.org
BitTorrentTracker PerecTracker.org
    
Регистрация  ·  Вход
 
 · 
Забыли пароль?

  • Ярость / Fury (Дэвид Эйр / David Ayer) [2014, Великобритания, США, Китай, боевик, драма, военный, BDRip] Dub + HardSub rus

    Ответить на тему
     
    Автор Сообщение

    Light

    Создавать темы 17-Апр-2015 14:12

           

    [Цитировать]

    Ярость / Fury
    «War never ends quietly»
    -Страна: Великобритания, США, Китай / Columbia Pictures, Crave Films, LStar Capital...
    Жанр: боевик, драма, военный
    Год выпуска: 2014
    Продолжительность: 02:14:38
    Перевод: Профессиональный (дублированный) лицензия CEE
    Cубтитры: русские (HardSub) на надписи и немецкую речь (вшитые неотключаемые)
    Режиссёр: Дэвид Эйр / David Ayer
    В ролях: Брэд Питт, Логан Лерман, Шайа ЛаБаф, Майкл Пенья, Джон Бернтал, Джейсон Айзекс, Джим Пэррак, Брэд Уильям Хенке, Кевин Вэнс, Завьер Сэмюэл, Анамария Маринка, Алисия фон Риттберг, Скотт Иствуд.
    Описание: Стоит апрель 1945 года, и победа над немцами уже близка: союзники уверенно продвигаются вглубь вражеской территории, и оказываемое им сопротивление становится слабее день ото дня. Это, однако, совсем не значит, что на пути к победе союзные войска не потеряют еще множество людей, и многие солдаты сознают, что смерть ждет на расстоянии вытянутой руки. Среди закаленных в бою пессимистов, каждый день ведущих ожесточенные бои во имя победы, экипаж танка, на чьем дуле намалевано слово «Ярость».-Рейтинг
    imdb.com: 7.70 (192 865)
    kinopoisk.ru: 7.470 (52 445)
    MPAA: - лицам до 17 лет обязательно присутствие взрослого-Сэмпл: http://multi-up.com/1035396-Качество видео: BDRip [видео: FURY_REMUX_HDCLUB]
    Формат видео: AVI
    Видео: XviD build 66, 720x304 (2.37:1), 23.976 fps, ~1356 kbps avg, 0.258 bit/pixel
    Аудио: 48 kHz, AC3 Dolby Digital, 2/0 (L,R) ch, ~192 kbps avg (Dub)
    Формат субтитров: hardsub
    -

    MediaInfo

    Общее
    Полное имя : D:\Fury.2014.Dub.HardSub.BDRip.1,46Gb.XviD.AC3.avi
    Формат : AVI
    Формат/Информация : Audio Video Interleave
    Размер файла : 1,46 Гбайт
    Продолжительность : 2 ч. 14 м.
    Общий поток : 1557 Кбит/сек
    Название фильма : Fury 2014
    Режиссёр : David Ayer
    Дата записи : 14.02.2015
    Программа кодирования : VirtualDubModRus 1.5.10.2 (build 2542/release)
    Библиотека кодирования : VirtualDubMod build 2542/release
    Правообладатель : Rutracker.org
    Примечание : BDRip by MooN_WalkeR
    Видео
    Идентификатор : 0
    Формат : MPEG-4 Visual
    Профиль формата : Advanced Simple@L5
    Параметр BVOP формата : 1
    Параметр QPel формата : Нет
    Параметр GMC формата : Без точки перехода
    Параметр матрицы формата : Выборочная
    Идентификатор кодека : XVID
    Идентификатор кодека/Подсказка : XviD
    Продолжительность : 2 ч. 14 м.
    Битрейт : 1356 Кбит/сек
    Ширина : 720 пикселей
    Высота : 304 пикселя
    Соотношение сторон : 2,35:1
    Частота кадров : 23,976 кадра/сек
    Цветовое пространство : YUV
    Субдискретизация насыщенности : 4:2:0
    Битовая глубина : 8 бит
    Тип развёртки : Прогрессивная
    Метод сжатия : С потерями
    Бит/(Пиксели*Кадры) : 0.258
    Размер потока : 1,27 Гбайт (87%)
    Библиотека кодирования : XviD 66
    Аудио
    Идентификатор : 1
    Формат : AC-3
    Формат/Информация : Audio Coding 3
    Расширение режима : CM (complete main)
    Параметр Endianness формата : Big
    Идентификатор кодека : 2000
    Продолжительность : 2 ч. 14 м.
    Вид битрейта : Постоянный
    Битрейт : 192 Кбит/сек
    Каналы : 2 канала
    Расположение каналов : Front: L R
    Частота : 48,0 КГц
    Битовая глубина : 16 бит
    Метод сжатия : С потерями
    Размер потока : 185 Мбайт (12%)
    Выравнивание : Разделение по промежуткам
    Продолжительность промежутка : 42 мс. (1,00 видеокадр)
    Время предзагрузки промежутка : 500 мс.
    Заголовок : Dub CEE

    Скриншоты


    Скачать .torrent

    Скачать торрент-файл бесплатно и на максимальной скорости!

    Как скачивать? · Что такое торрент? · Рейтинг и ограничения

    !ВНИМАНИЕ!
    Сайт не распространяет и не хранит электронные версии произведений, а занимается лишь лишь предоставлением доступа к создаваемому пользователями каталогу ссылок на торрент-файлы, которые содержат только списки хеш-сумм, убедительная просьба с жалобами обращаться напрямую к пользователю. Файлы для обмена на трекере предоставлены пользователями сайта, и администрация не несёт ответственности за их содержание. Просьба не заливать файлы, защищенные авторскими правами, а также файлы нелегального содержания!


    _________________
    [Профиль] [ЛС]
    Показать сообщения:    
    Ответить на тему

    Текущее время: Сегодня, в 12:20

    Часовой пояс: GMT + 2



    Вы не можете начинать темы
    Вы не можете отвечать на сообщения
    Вы не можете редактировать свои сообщения
    Вы не можете удалять свои сообщения
    Вы не можете голосовать в опросах
    Вы не можете прикреплять файлы к сообщениям
    Вы не можете скачивать файлы