BitTorrentTracker PerecTracker.org
BitTorrentTracker PerecTracker.org
    
Регистрация  ·  Вход
 
 · 
Забыли пароль?

  • Заложница 3 / Taken 3 (Оливье Мегатон / Olivier Megaton) [2014, Франция, Боевик, триллер, криминал, HDRip] [Unrated version] Dub

    Ответить на тему
     
    Автор Сообщение

    Light

    Создавать темы 17-Апр-2015 01:36

           

    [Цитировать]

    Заложница 3 / Taken 3
    Страна: Франция
    Жанр: Боевик, триллер, криминал
    Год выпуска: 2014
    Продолжительность: 01:55:18
    Перевод: Профессиональный (дублированный) Лицензия
    Cубтитры: нет
    Оригинальная аудиодорожка: нет
    Примечание: EXTENDED версия длиннее театральной на ~7 мин. ПОЛНЫЙ ЛИЦЕНЗИОННЫЙ ПЕРЕВОД - ДУБЛЯЖ.
    Режиссер: Оливье Мегатон / Olivier Megaton
    В ролях: Лиам Нисон, Мэгги Грэйс, Форест Уитакер, Сэм Спруэлл, Фамке Янссен, Дугрей Скотт, Дон Харви, Дилан Бруно, Лиленд Орсер, Дэвид Уоршофски, Джон Грайз, Джонни Уэстон, Эндрю Борба, Джуди Бичер, Эндрю Ховард, Седрик Сиротто, Катрин Дайер, Джимми Палумбо, Роберт Пралго, Тони Уильямс
    Описание: Брайан Миллс — бывший правительственный агент, который не раз выходил из самых сложных ситуаций. Он является настоящим профессионалом своего дела и больше всего в жизни любит свою семью, ради которой готов на все. Оставив свое боевое прошлое он старается вести мирную жизнь, но, однажды, ему вновь приходится взяться за оружие. Неизвестные убивают его бывшую жену Лэнни и делают все так, чтобы главным подозреваемым в этом преступлении стал именно Брайан. Ему удается сбежать от полиции, после чего он пытается сделать все возможное, чтобы найти настоящего убийцу. Однако сделать это будет очень непросто, поскольку его преследует опытный детектив, от которого не смог уйти еще ни один преступник...
    Сэмпл: http://sendfile.su/1108414
    Качество видео: HDRip
    Формат видео: AVI
    Видео: MPEG4, XviD, 720x304 (2.35:1), 23.976 fps, 1 352 Kbps (0.258 bit/pixel)
    Аудио: AC-3, 48.0 KHz, 6 ch, 448 Kbps, CBR

    MediaInfo

    Общее
    Полное имя : C:\Users\1\Downloads\Video\Zalogn1tsa.3.EXTENDED.2014.D.HDRip.1400MB.avi
    Формат : AVI
    Формат/Информация : Audio Video Interleave
    Размер файла : 1,46 Гбайт
    Продолжительность : 1 ч. 55 м.
    Общий поток : 1809 Кбит/сек
    Программа кодирования : VirtualDubMod 1.5.10.2 (build 2540/release)
    Библиотека кодирования : VirtualDubMod build 2540/release
    Видео
    Идентификатор : 0
    Формат : MPEG-4 Visual
    Профиль формата : Advanced Simple@L5
    Параметр BVOP формата : 2
    Параметр QPel формата : Нет
    Параметр GMC формата : Без точки перехода
    Параметр матрицы формата : Default (MPEG)
    Идентификатор кодека : XVID
    Идентификатор кодека/Подсказка : XviD
    Продолжительность : 1 ч. 55 м.
    Битрейт : 1352 Кбит/сек
    Ширина : 720 пикселей
    Высота : 304 пикселя
    Соотношение сторон : 2,35:1
    Частота кадров : 23,976 кадра/сек
    Цветовое пространство : YUV
    Субдискретизация насыщенности : 4:2:0
    Битовая глубина : 8 бит
    Тип развёртки : Прогрессивная
    Метод сжатия : С потерями
    Бит/(Пиксели*Кадры) : 0.258
    Размер потока : 1,09 Гбайт (75%)
    Библиотека кодирования : XviD 1.2.1 (UTC 2008-12-04)
    Аудио
    Идентификатор : 1
    Формат : AC-3
    Формат/Информация : Audio Coding 3
    Расширение режима : CM (complete main)
    Параметр Endianness формата : Big
    Идентификатор кодека : 2000
    Продолжительность : 1 ч. 55 м.
    Вид битрейта : Постоянный
    Битрейт : 448 Кбит/сек
    Каналы : 6 каналов
    Расположение каналов : Front: L C R, Side: L R, LFE
    Частота : 48,0 КГц
    Битовая глубина : 16 бит
    Метод сжатия : С потерями
    Размер потока : 369 Мбайт (25%)
    Выравнивание : Разделение по промежуткам
    Продолжительность промежутка : 42 мс. (1,00 видеокадр)
    Время предзагрузки промежутка : 500 мс.

    Скриншоты

    Скачать .torrent

    Скачать торрент-файл бесплатно и на максимальной скорости!

    Как скачивать? · Что такое торрент? · Рейтинг и ограничения

    !ВНИМАНИЕ!
    Сайт не распространяет и не хранит электронные версии произведений, а занимается лишь лишь предоставлением доступа к создаваемому пользователями каталогу ссылок на торрент-файлы, которые содержат только списки хеш-сумм, убедительная просьба с жалобами обращаться напрямую к пользователю. Файлы для обмена на трекере предоставлены пользователями сайта, и администрация не несёт ответственности за их содержание. Просьба не заливать файлы, защищенные авторскими правами, а также файлы нелегального содержания!


    _________________
    [Профиль] [ЛС]
    Показать сообщения:    
    Ответить на тему

    Текущее время: Сегодня, в 14:22

    Часовой пояс: GMT + 2



    Вы не можете начинать темы
    Вы не можете отвечать на сообщения
    Вы не можете редактировать свои сообщения
    Вы не можете удалять свои сообщения
    Вы не можете голосовать в опросах
    Вы не можете прикреплять файлы к сообщениям
    Вы не можете скачивать файлы