BitTorrentTracker PerecTracker.org
BitTorrentTracker PerecTracker.org
    
Регистрация  ·  Вход
 
 · 
Забыли пароль?

  • Гонка / Rush (Рон Ховард / Ron Howard) [2013, Великобритания, Спорт, драма, биография, BDRip] MVO (Омикрон)

    Ответить на тему
     
    Автор Сообщение

    Light

    Создавать темы 17-Апр-2015 01:36

           

    [Цитировать]

    Гонка / Rush
    «Делай что должен, и будь что будет»
    -Год выпуска: 2013
    Выпущено: Великобритания, Германия / Imagine Entertainment
    Жанр: спорт, драма, биография
    Продолжительность: 02:02:20
    Перевод: Профессиональный (многоголосый закадровый) студия «Омикрон»
    Cубтитры: нет-Режиссер:
    Рон Ховард / Ron Howard-В ролях:
    Крис Хемсворт (James Hunt), Даниэль Брюль (Niki Lauda), Оливия Уайлд (Suzy Miller), Александра Мария Лара (Marlene Lauda), Пьерфранческо Фавино (Clay Regazzoni), Дэвид Колдер (Louis Stanley), Натали Дормер (Nurse Gemma), Стефен Мэнгэн (Alastair Caldwell), Кристиан МакКэй (Lord Hesketh), Алистэр Петри (Stirling Moss)-Описание:
    70-е годы XX века. Золотое время «Формулы-1»: обтекаемые формы гоночных машин, брутальные на треке и ранимые в обычной жизни гонщики, сексуальные поклонницы, литры шампанского на финише для победителя… Два непримиримых соперника в истории гонок — обаятельный плейбой-англичанин Джеймс Хант и дисциплинированный перфекционист-австриец Ники Лауда — доводят себя до предела физической и психологической выносливости ради триумфа на трассе. Для них нет легких путей к победе и права на ошибку. Единственный промах гонщикам может стоить карьеры и даже жизни.-Релиз групп
    | | IMDB | КиноПоиск | Сэмпл |-Качество: BDRip [BDRemux NOR Transfer | 1080p | Кинозал]
    Формат: AVI
    Видео: 720x304 (2.37:1), 23.976 fps, XviD build 73 ~1313 kbps avg, 0.25 bit/pixel
    Аудио: 48 kHz, AC3 Dolby Digital, 3/2 (L,C,R,l,r) + LFE ch, ~384.00 kbps avg-

    Скриншоты

    MediaInfo

    General
    Complete name               : D:\Gonka_2013_BDRip_MVO_by_Dalemake.avi
    Format                      : AVI
    Format/Info                 : Audio Video Interleave
    File size                   : 1.46 GiB
    Duration                    : 2h 2mn
    Overall bit rate            : 1 706 Kbps
    Writing application         : VirtualDubMod 1.5.10.3 | www.virtualdub-fr.org || (build 2550/release)
    Writing library             : VirtualDubMod build 2550/release
    Video
    ID                          : 0
    Format                      : MPEG-4 Visual
    Format profile              : Advanced Simple@L5
    Format settings, BVOP       : 1
    Format settings, QPel       : No
    Format settings, GMC        : No warppoints
    Format settings, Matrix     : Custom
    Codec ID                    : XVID
    Codec ID/Hint               : XviD
    Duration                    : 2h 2mn
    Bit rate                    : 1 314 Kbps
    Width                       : 720 pixels
    Height                      : 304 pixels
    Display aspect ratio        : 2.35:1
    Frame rate                  : 23.976 fps
    Color space                 : YUV
    Chroma subsampling          : 4:2:0
    Bit depth                   : 8 bits
    Scan type                   : Progressive
    Compression mode            : Lossy
    Bits/(Pixel*Frame)          : 0.250
    Stream size                 : 1.12 GiB (77%)
    Writing library             : XviD 73
    Audio
    ID                          : 1
    Format                      : AC-3
    Format/Info                 : Audio Coding 3
    Mode extension              : CM (complete main)
    Format settings, Endianness : Big
    Codec ID                    : 2000
    Duration                    : 2h 2mn
    Bit rate mode               : Constant
    Bit rate                    : 384 Kbps
    Channel(s)                  : 6 channels
    Channel positions           : Front: L C R, Side: L R, LFE
    Sampling rate               : 48.0 KHz
    Bit depth                   : 16 bits
    Compression mode            : Lossy
    Delay relative to video     : 14ms
    Stream size                 : 335 MiB (22%)
    Alignment                   : Split accross interleaves
    Interleave, duration        : 42 ms (1.00 video frame)
    Interleave, preload duratio : 500 ms

    Благодарности

    Перевод и озвучивание осуществлено в рамках сервиса "Озвучивание" ресурса HDCLUB. Спонсоры: nod, pppaul, MishGan2008, diezel, McClaud, kinomexanik, CristaS, AmigoDen, xmods, Bellerofont, Fenix_Zz, ultrajeka, shagun, Кириллка, Ser2207, Bluray, rassvet, DaniLch, motpac, melanin, Juve, TiberianZ, rivaspb, PoHHaN, Confidence, darkzim, Dabrynych, iiiMia, BEZYMNIY, maxv, hardkatok, Pertcev, Duff82, king3, lemonarium, tambov68, ADIC, Evgecha_72, Ex1l, GlebBorschev, anton48, FilimoniC, mcevg, SharkHD, niksource, Steal, ZeRoNe, ip_komyagin, UltraHD, John05, Tahoe, Dud, october2, urvakanner, baivlad, goriathid, paha1, Mockatt, G_R_U, Аркан75, four_finger, AlexHD, Ignessio, lex077, irrlicht, sum, Dark_Victor, dkolot.
    -
    Скачать .torrent

    Скачать торрент-файл бесплатно и на максимальной скорости!

    Как скачивать? · Что такое торрент? · Рейтинг и ограничения

    !ВНИМАНИЕ!
    Сайт не распространяет и не хранит электронные версии произведений, а занимается лишь лишь предоставлением доступа к создаваемому пользователями каталогу ссылок на торрент-файлы, которые содержат только списки хеш-сумм, убедительная просьба с жалобами обращаться напрямую к пользователю. Файлы для обмена на трекере предоставлены пользователями сайта, и администрация не несёт ответственности за их содержание. Просьба не заливать файлы, защищенные авторскими правами, а также файлы нелегального содержания!


    _________________
    [Профиль] [ЛС]
    Показать сообщения:    
    Ответить на тему

    Текущее время: Сегодня, в 17:22

    Часовой пояс: GMT + 2



    Вы не можете начинать темы
    Вы не можете отвечать на сообщения
    Вы не можете редактировать свои сообщения
    Вы не можете удалять свои сообщения
    Вы не можете голосовать в опросах
    Вы не можете прикреплять файлы к сообщениям
    Вы не можете скачивать файлы