Register  ·  Log in
Forgot password?

  • Прошлым летом (Виктор Трегубович) [1962 г., мелодрама, короткометражный, SATRip]

    Reply to topic
    Author Message


    Post 16-Apr-2015 05:36



    Прошлым летомГод выпуска: 1962.
    Жанр: мелодрама, короткометражный.
    Продолжительность: 00:28:43.
    Режиссер: Виктор Трегубович.
    В ролях:
    Татьяна Никитина, Семён Морозов, Виталий Каневский, Лидия Колпакова, Долорес Столбова.
    О том, что Гриша и Полина любят друг друга, уже знает вся деревня. Скрывать свои чувства и поздно и глупо — так думает Полина, а Гриша пока еще не решил, кто для него важнее — старые дружки, или эта девчонка, которая даже не может постоять за себя...
    Доп. информация:
    Страна: СССР .
    Киностудия: Ленфильм.
    Премьера: 30 ноября 1962 года.
    Автор сценария: Александр Володин.
    Оператор: Семён Иванов.
    Композитор: Георгий Портнов.
    Художник: Иван Иванов.

    Рип с этой раздачи.
    Большое спасибо doogler за предоставленый материал для рипа!!!

    Качество: SATRip
    Формат: AVI
    Видео: 672x512 (1.31:1), 25 fps, XviD build 73 ~2099 kbps avg, 0.24 bit/pixel
    Аудио: 48 kHz, AC3 Dolby Digital, 2/0 (L,R) ch, ~192 kbps

    Отчет MI

    Complete name : Proshlym.letom.1962.XviD.SATRip.fenixclub.avi
    Format : AVI
    Format/Info : Audio Video Interleave
    File size : 473 MiB
    Duration : 28mn 42s
    Overall bit rate : 2 302 Kbps
    Writing application : VirtualDubMod | || (build 2550/release)
    Writing library : VirtualDubMod build 2550/release
    ID : 0
    Format : MPEG-4 Visual
    Format profile : Advanced Simple@L5
    Format settings, BVOP : 1
    Format settings, QPel : No
    Format settings, GMC : No warppoints
    Format settings, Matrix : Custom
    Codec ID : XVID
    Codec ID/Hint : XviD
    Duration : 28mn 42s
    Bit rate : 2 100 Kbps
    Width : 672 pixels
    Height : 512 pixels
    Display aspect ratio : 4:3
    Frame rate : 25.000 fps
    Color space : YUV
    Chroma subsampling : 4:2:0
    Bit depth : 8 bits
    Scan type : Progressive
    Compression mode : Lossy
    Bits/(Pixel*Frame) : 0.244
    Stream size : 431 MiB (91%)
    Writing library : XviD 73
    ID : 1
    Format : AC-3
    Format/Info : Audio Coding 3
    Mode extension : CM (complete main)
    Format settings, Endianness : Big
    Codec ID : 2000
    Duration : 28mn 42s
    Bit rate mode : Constant
    Bit rate : 192 Kbps
    Channel(s) : 2 channels
    Channel positions : Front: L R
    Sampling rate : 48.0 KHz
    Bit depth : 16 bits
    Compression mode : Lossy
    Stream size : 39.4 MiB (8%)
    Alignment : Split accross interleaves
    Interleave, duration : 40 ms (1.00 video frame)
    Interleave, preload duratio : 500 ms.

    Альтернативный хост

    Download .torrent

    Download free and at maximum speed!

    How to Download? · What is a torrent? · Ratings and Limitations

    The site does not extend and does not store electronic(digital) versions of products, and only gives access to a reference catalogue created by users on torrent-files which contain only lists of the hash-sums, the earnest entreaty, with complaints(abuse) to access directly to the user. Files for an exchange on tracker are given by users of a site, and the administration does not bear the responsibility for their maintenance. The request to not fill in the files protected by copyrights, and also files of the illegal maintenance!

    [Profile] [PM]
    Display posts from previous:    
    Reply to topic

    The time now is: Today 14:24

    All times are GMT + 3 Hours

    You cannot post new topics in this forum
    You cannot reply to topics in this forum
    You cannot edit your posts in this forum
    You cannot delete your posts in this forum
    You cannot vote in polls in this forum
    You cannot attach files in this forum
    You cannot download files in this forum