BitTorrentTracker PerecTracker.org
BitTorrentTracker PerecTracker.org
    
Регистрация  ·  Вход
 
 · 
Забыли пароль?

  • Наследство (Георгий Натансон) [1984 г., социальная драма, SATRip]

    Ответить на тему
     
    Автор Сообщение

    Light

    Создавать темы 16-Апр-2015 00:24

           

    [Цитировать]

    НаследствоГод выпуска: 1984.
    Жанр: социальная драма.
    Продолжительность: 01:23:27.
    Режиссер: Георгий Натансон.
    В ролях:
    Леонид Марков, Зинаида Дехтярёва, Ирина Мирошниченко, Юрий Васильев, Пётр Глебов, Галина Попова, Владимир Широков, Алефтина Евдокимова, Пётр Щербаков, Сергей Быстрицкий, Анатолий Голик, Александр Домогаров.
    Описание:
    События происходят в 1980-е годы и повествуют о взаимоотношениях трех поколений в семье генерала в отставке, внук которого, не поступив в институт, призывается в армию. Служба на границе его не разочаровывает, и юноша принимает решение продолжить семейную традицию...
    В фильме принимают участие артисты оперы и эстрады Елена Образцова, Иосиф Кобзон, Николай Гнатюк, Татьяна Лейбель, Владимир Никольский.

    Доп. информация:
    Страна: СССР .
    Киностудия: Мосфильм.
    Премьера: 18 февраля 1985 года.
    Авторы сценария: Анатолий Софронов, Георгий Натансон.
    Оператор: Виктор Якушев.
    Композитор: Оскар Фельцман.
    Художник: Саид Меняльщиков.

    Релиз
    Рип с этой раздачи.
    Большое спасибо Cheef mate за предоставленый материал для рипа!!!

    Качество: SATRip
    Формат: AVI
    Видео: 624x480 (1.30:1), 25 fps, XviD build 73 ~1121 kbps avg, 0.15 bit/pixel
    Аудио: 48 kHz, MPEG Layer 3, 2 ch, ~128.00 kbps avg

    Отчет MI

    General
    Complete name : Nasledstvo.1984.XviD.SATRip_751.avi
    Format : AVI
    Format/Info : Audio Video Interleave
    File size : 752 MiB
    Duration : 1h 23mn
    Overall bit rate : 1 259 Kbps
    Writing application : VirtualDubMod 1.5.10.3 | www.virtualdub-fr.org || (build 2550/release)
    Writing library : VirtualDubMod build 2550/release
    Video
    ID : 0
    Format : MPEG-4 Visual
    Format profile : Advanced Simple@L5
    Format settings, BVOP : 1
    Format settings, QPel : No
    Format settings, GMC : No warppoints
    Format settings, Matrix : Custom
    Codec ID : XVID
    Codec ID/Hint : XviD
    Duration : 1h 23mn
    Bit rate : 1 121 Kbps
    Width : 624 pixels
    Height : 480 pixels
    Display aspect ratio : 4:3
    Frame rate : 25.000 fps
    Color space : YUV
    Chroma subsampling : 4:2:0
    Bit depth : 8 bits
    Scan type : Progressive
    Compression mode : Lossy
    Bits/(Pixel*Frame) : 0.150
    Stream size : 669 MiB (89%)
    Writing library : XviD 73
    Audio
    ID : 1
    Format : MPEG Audio
    Format version : Version 1
    Format profile : Layer 3
    Codec ID : 55
    Codec ID/Hint : MP3
    Duration : 1h 23mn
    Bit rate mode : Constant
    Bit rate : 128 Kbps
    Channel(s) : 2 channels
    Sampling rate : 48.0 KHz
    Compression mode : Lossy
    Stream size : 76.4 MiB (10%)
    Alignment : Aligned on interleaves
    Interleave, duration : 40 ms (1.00 video frame)
    Interleave, preload duratio : 504 ms
    Writing library : LAME3.99r
    Encoding settings : -m s -V 4 -q 2 -lowpass 17 -b 128
    Скриншоты

    Альтернативный хост

    Скачать .torrent

    Скачать торрент-файл бесплатно и на максимальной скорости!

    Как скачивать? · Что такое торрент? · Рейтинг и ограничения

    !ВНИМАНИЕ!
    Сайт не распространяет и не хранит электронные версии произведений, а занимается лишь лишь предоставлением доступа к создаваемому пользователями каталогу ссылок на торрент-файлы, которые содержат только списки хеш-сумм, убедительная просьба с жалобами обращаться напрямую к пользователю. Файлы для обмена на трекере предоставлены пользователями сайта, и администрация не несёт ответственности за их содержание. Просьба не заливать файлы, защищенные авторскими правами, а также файлы нелегального содержания!


    _________________
    [Профиль] [ЛС]
    Показать сообщения:    
    Ответить на тему

    Текущее время: Сегодня, в 00:28

    Часовой пояс: GMT + 2



    Вы не можете начинать темы
    Вы не можете отвечать на сообщения
    Вы не можете редактировать свои сообщения
    Вы не можете удалять свои сообщения
    Вы не можете голосовать в опросах
    Вы не можете прикреплять файлы к сообщениям
    Вы не можете скачивать файлы