BitTorrentTracker PerecTracker.org
BitTorrentTracker PerecTracker.org
    
Регистрация  ·  Вход
 
 · 
Забыли пароль?

  • Вселенная Стивена Хокинга / The Theory of Everything (Джеймс Марш / James Marsh) [2014, Великобритания, Драма, мелодрама, биография, BDRip] Dub

    Ответить на тему
     
    Автор Сообщение

    Light

    Создавать темы 16-Апр-2015 00:24

           

    [Цитировать]

    Вселенная Стивена Хокинга / The Theory of Everything-Год выпуска: 2014
    Выпущено: Великобритания / Working Title Films
    Жанр: драма, мелодрама, биография
    Продолжительность: 02:03:25
    Перевод: Профессиональный (полное дублирование) BD CEE
    Cубтитры: нет-Режиссер:
    Джеймс Марш / James Marsh-В ролях:
    Эдди Редмэйн (Stephen Hawking), Фелисити Джонс (Jane Hawking), Чарли Кокс (Jonathan Hellyer Jones), Дэвид Тьюлис (Dennis Sciama), Эмили Уотсон (Beryl Wilde), Максин Пик (Elaine Mason), Саймон МакБерни (Frank Hawking), Эбигейл Круттенден (Isobel Hawking), Гарри Ллойд (Brian), Майкл Маркус Морган (Ellis)-Описание:
    История отношений между известным физиком Стивеном Хокингом и его женой.
    -Релиз групп
    | | IMDB | КиноПоиск | Сэмпл |-Качество: BDRip [BDRemux | 1080p | Кинозал]
    Формат: AVI
    Видео: 720x304 (2.37:1), 23.976 fps, XviD build 73 ~1301 kbps avg, 0.25 bit/pixel
    Аудио: 48 kHz, AC3 Dolby Digital, 3/2 (L,C,R,l,r) + LFE ch, ~384.00 kbps avg
    -

    Скриншоты

    MediaInfo

    General
    Complete name                            : D:\Vselennaya_Stivena_Hokinga_2014_BDRip_by_Dalemake.avi
    Format                                   : AVI
    Format/Info                              : Audio Video Interleave
    File size                                : 1.46 GiB
    Duration                                 : 2h 3mn
    Overall bit rate                         : 1 695 Kbps
    Writing application                      : VirtualDubMod 1.5.10.3 | www.virtualdub-fr.org || (build 2550/release)
    Writing library                          : VirtualDubMod build 2550/release
    Video
    ID                                       : 0
    Format                                   : MPEG-4 Visual
    Format profile                           : Advanced Simple@L5
    Format settings, BVOP                    : 1
    Format settings, QPel                    : No
    Format settings, GMC                     : No warppoints
    Format settings, Matrix                  : Custom
    Codec ID                                 : XVID
    Codec ID/Hint                            : XviD
    Duration                                 : 2h 3mn
    Bit rate                                 : 1 302 Kbps
    Width                                    : 720 pixels
    Height                                   : 304 pixels
    Display aspect ratio                     : 2.35:1
    Frame rate                               : 23.976 fps
    Color space                              : YUV
    Chroma subsampling                       : 4:2:0
    Bit depth                                : 8 bits
    Scan type                                : Progressive
    Compression mode                         : Lossy
    Bits/(Pixel*Frame)                       : 0.248
    Stream size                              : 1.12 GiB (77%)
    Writing library                          : XviD 73
    Audio
    ID                                       : 1
    Format                                   : AC-3
    Format/Info                              : Audio Coding 3
    Mode extension                           : CM (complete main)
    Format settings, Endianness              : Big
    Codec ID                                 : 2000
    Duration                                 : 2h 3mn
    Bit rate mode                            : Constant
    Bit rate                                 : 384 Kbps
    Channel(s)                               : 6 channels
    Channel positions                        : Front: L C R, Side: L R, LFE
    Sampling rate                            : 48.0 KHz
    Bit depth                                : 16 bits
    Compression mode                         : Lossy
    Stream size                              : 339 MiB (23%)
    Alignment                                : Split accross interleaves
    Interleave, duration                     : 42 ms (1.00 video frame)
    Interleave, preload duration             : 500 ms
    Сравнение
    http://perectracker.org/viewtopic.php?t=4974339
    http://screenshotcomparison.com/comparison/122126
    + у конкурента в самом начале на заставке FOCUS Features наложен звук заставки Universal, дорожка значит не с блюра CEE-
    Скачать .torrent

    Скачать торрент-файл бесплатно и на максимальной скорости!

    Как скачивать? · Что такое торрент? · Рейтинг и ограничения

    !ВНИМАНИЕ!
    Сайт не распространяет и не хранит электронные версии произведений, а занимается лишь лишь предоставлением доступа к создаваемому пользователями каталогу ссылок на торрент-файлы, которые содержат только списки хеш-сумм, убедительная просьба с жалобами обращаться напрямую к пользователю. Файлы для обмена на трекере предоставлены пользователями сайта, и администрация не несёт ответственности за их содержание. Просьба не заливать файлы, защищенные авторскими правами, а также файлы нелегального содержания!


    _________________
    [Профиль] [ЛС]
    Показать сообщения:    
    Ответить на тему

    Текущее время: Сегодня, в 10:06

    Часовой пояс: GMT + 2



    Вы не можете начинать темы
    Вы не можете отвечать на сообщения
    Вы не можете редактировать свои сообщения
    Вы не можете удалять свои сообщения
    Вы не можете голосовать в опросах
    Вы не можете прикреплять файлы к сообщениям
    Вы не можете скачивать файлы