BitTorrentTracker PerecTracker.org
BitTorrentTracker PerecTracker.org
    
Регистрация  ·  Вход
 
 · 
Забыли пароль?

  • Чeрное море / Black Sea (Кевин МакДональд / Kevin Macdonald) [2014, Великобритания, США, Россия, триллер, приключения, BDRip-AVC] MVO + Original Eng

    Ответить на тему
     
    Автор Сообщение

    Light

    Создавать темы 16-Апр-2015 00:24

           

    [Цитировать]

    Чeрное море / Black SeaСтрана: Великобритания, США, Россия
    Жанр: триллер, приключения
    Год выпуска: 2014
    Продолжительность: 1:54:42
    Перевод: Профессиональный (многоголосый закадровый)
    Cубтитры: нет
    Оригинальная аудиодорожка: английский
    Режиссер: Кевин МакДональд / Kevin Macdonald
    В ролях: Джуд Лоу, Скут МакНэри, Бен Мендельсон, Джоди Уиттакер, Тобайас Мензис, Григорий Добрыгин, Дэвид Трелфолл, Джун Смит, Майкл Смайли, Карл Дейвис, Константин Хабенский, Сергей Пускепалис
    Описание: К уволенному капитану подводной лодки обращается таинственный наниматель с предложением возглавить экспедицию по поиску затонувшей у берегов Чёрного моря субмарины, предположительно загруженной золотом. Желая подзаработать на этом деле и отомстить бывшему работодателю, капитан собирает команду из русских и английских моряков и отправляется в плавание, но вскоре понимает, в какое рискованное предприятие ввязался.

    Сэмпл: http://sendfile.su/1108094
    Качество видео: BDRip-AVC [Чёрное море / Black Sea (2014) Blu-ray Disc -BLUEBIRD]
    Формат видео: MKV
    Видео: AVC, 1152 x 480 (2,40:1), 2781 kbps, 23,976 fps, 0,210 bpp
    Аудио: AC3, 6ch, 48 kHz, ~448kbps, 16 bit
    Аудио 2: AC3, 6ch, 48 kHz, ~384kbps, 16 bit

    MediaInfo

    Уникальный идентификатор : 241300389235811669037045368641693786707 (0xB588C3B7B952B3B0BB24940948ADA253)
    Полное имя : F:\Films\Black_sea\Black_sea.mkv
    Формат : Matroska
    Версия формата : Version 4 / Version 2
    Размер файла : 2,89 Гбайт
    Продолжительность : 1 ч. 54 м.
    Общий поток : 3612 Кбит/сек
    Дата кодирования : UTC 2015-04-15 06:11:57
    Программа кодирования : mkvmerge v7.7.0 ('Six Voices') 64bit built on Feb 28 2015 23:39:33
    Библиотека кодирования : libebml v1.3.1 + libmatroska v1.4.2
    _STATISTICS_WRITING_APP : mkvmerge v7.7.0 ('Six Voices') 64bit built on Feb 28 2015 23:39:33
    _STATISTICS_WRITING_DATE_UTC : 2015-04-15 06:11:57
    _STATISTICS_TAGS : BPS DURATION NUMBER_OF_FRAMES NUMBER_OF_BYTES
    DURATION : 01:54:42.528000000
    NUMBER_OF_FRAMES : 215079
    NUMBER_OF_BYTES : 330361344
    Видео
    Идентификатор : 1
    Формат : AVC
    Формат/Информация : Advanced Video Codec
    Профиль формата : High@L4.1
    Параметр CABAC формата : Да
    Параметр ReFrames формата : 8 кадров
    Идентификатор кодека : V_MPEG4/ISO/AVC
    Продолжительность : 1 ч. 54 м.
    Битрейт : 2781 Кбит/сек
    Ширина : 1152 пикселя
    Высота : 480 пикселей
    Соотношение сторон : 2,40:1
    Режим частоты кадров : Постоянный
    Частота кадров : 23,976 кадра/сек
    Цветовое пространство : YUV
    Субдискретизация насыщенности : 4:2:0
    Битовая глубина : 8 бит
    Тип развёртки : Прогрессивная
    Бит/(Пиксели*Кадры) : 0.210
    Размер потока : 2,17 Гбайт (75%)
    Библиотека кодирования : x264 core 142 r2431 ac76440
    Настройки программы : cabac=1 / ref=8 / deblock=1:-2:-1 / analyse=0x3:0x133 / me=umh / subme=9 / psy=1 / psy_rd=1.00:0.05 / mixed_ref=0 / me_range=36 / chroma_me=1 / trellis=2 / 8x8dct=1 / cqm=0 / deadzone=21,11 / fast_pskip=0 / chroma_qp_offset=-3 / threads=4 / lookahead_threads=1 / sliced_threads=0 / nr=0 / decimate=0 / interlaced=0 / bluray_compat=0 / constrained_intra=0 / bframes=12 / b_pyramid=2 / b_adapt=2 / b_bias=0 / direct=1 / weightb=1 / open_gop=0 / weightp=2 / keyint=240 / keyint_min=23 / scenecut=40 / intra_refresh=0 / rc=2pass / mbtree=0 / bitrate=2781 / ratetol=1.0 / qcomp=0.70 / qpmin=10 / qpmax=69 / qpstep=4 / cplxblur=20.0 / qblur=0.5 / ip_ratio=1.40 / pb_ratio=1.30 / aq=1:1.00
    Default : Да
    Forced : Нет
    Аудио #1
    Идентификатор : 2
    Формат : AC-3
    Формат/Информация : Audio Coding 3
    Расширение режима : CM (complete main)
    Параметр Endianness формата : Big
    Идентификатор кодека : A_AC3
    Продолжительность : 1 ч. 54 м.
    Вид битрейта : Постоянный
    Битрейт : 448 Кбит/сек
    Каналы : 6 каналов
    Расположение каналов : Front: L C R, Side: L R, LFE
    Частота : 48,0 КГц
    Битовая глубина : 16 бит
    Метод сжатия : С потерями
    Размер потока : 368 Мбайт (12%)
    Заголовок : Русский, MVO
    Язык : Russian
    Default : Да
    Forced : Нет
    Аудио #2
    Идентификатор : 3
    Формат : AC-3
    Формат/Информация : Audio Coding 3
    Расширение режима : CM (complete main)
    Параметр Endianness формата : Big
    Идентификатор кодека : A_AC3
    Продолжительность : 1 ч. 54 м.
    Вид битрейта : Постоянный
    Битрейт : 384 Кбит/сек
    Каналы : 6 каналов
    Расположение каналов : Front: L C R, Side: L R, LFE
    Частота : 48,0 КГц
    Битовая глубина : 16 бит
    Метод сжатия : С потерями
    Размер потока : 315 Мбайт (11%)
    Заголовок : Английский
    Язык : English
    Default : Нет
    Forced : Да
    Меню
    00:00:00.000 : en:00:00:00.000
    00:05:24.032 : en:00:05:24.032
    00:11:49.042 : en:00:11:49.042
    00:15:59.625 : en:00:15:59.625
    00:22:24.843 : en:00:22:24.843
    00:29:22.135 : en:00:29:22.135
    00:37:14.774 : en:00:37:14.774
    00:41:27.110 : en:00:41:27.110
    00:46:00.675 : en:00:46:00.675
    00:50:50.756 : en:00:50:50.756
    00:55:32.663 : en:00:55:32.663
    01:02:56.231 : en:01:02:56.231
    01:10:54.959 : en:01:10:54.959
    01:15:01.247 : en:01:15:01.247
    01:19:49.326 : en:01:19:49.326
    01:24:56.300 : en:01:24:56.300
    01:31:15.929 : en:01:31:15.929
    01:35:18.421 : en:01:35:18.421
    01:43:09.266 : en:01:43:09.266
    01:50:36.755 : en:01:50:36.755

    Скриншот c названием фильма

    Скриншоты

    Возраст

    16+ зрителям, достигшим 16 лет

    Рейтинг МРАА

    R - лицам до 17 лет обязательно присутствие взрослого
    Скачать .torrent

    Скачать торрент-файл бесплатно и на максимальной скорости!

    Как скачивать? · Что такое торрент? · Рейтинг и ограничения

    !ВНИМАНИЕ!
    Сайт не распространяет и не хранит электронные версии произведений, а занимается лишь лишь предоставлением доступа к создаваемому пользователями каталогу ссылок на торрент-файлы, которые содержат только списки хеш-сумм, убедительная просьба с жалобами обращаться напрямую к пользователю. Файлы для обмена на трекере предоставлены пользователями сайта, и администрация не несёт ответственности за их содержание. Просьба не заливать файлы, защищенные авторскими правами, а также файлы нелегального содержания!


    _________________
    [Профиль] [ЛС]
    Показать сообщения:    
    Ответить на тему

    Текущее время: Сегодня, в 08:02

    Часовой пояс: GMT + 2



    Вы не можете начинать темы
    Вы не можете отвечать на сообщения
    Вы не можете редактировать свои сообщения
    Вы не можете удалять свои сообщения
    Вы не можете голосовать в опросах
    Вы не можете прикреплять файлы к сообщениям
    Вы не можете скачивать файлы