BitTorrentTracker PerecTracker.org
BitTorrentTracker PerecTracker.org
    
Регистрация  ·  Вход
 
 · 
Забыли пароль?

  • Кот исчезает / El gato desaparece (Карлос Сорин / Carlos Sorin) [2011, Аргентина, драма, триллер, DVDRip-AVC] + Sub Rus + Original Spa

    Ответить на тему
     
    Автор Сообщение

    Light

    Создавать темы 16-Апр-2015 00:24

           

    [Цитировать]

    Кот исчезает / El gato desaparece
    Страна: Аргентина
    Жанр: драма, триллер
    Год выпуска: 2011
    Продолжительность: 01:27:24
    Перевод: субтитры (dicembre)
    Cубтитры: русские
    Оригинальная аудиодорожка: испанский
    Режиссер: Карлос Сорин / Carlos Sorin
    В ролях: Луис Луке, Беатрис Спельцини, Хавьер Никлисон, Мария Абади и др.
    Описание:
    Луис, университетский профессор в возрасте за 50, выписывается из психиатрической клиники, куда попал после первого в жизни острого припадка. Врачи уверяют его жену Беатрис, что профессор вылечился, и повторение cлучившегося маловероятно. Она забирает мужа из больницы, привозит домой и старается сделать все возможное, чтобы обеспечить ему окончательное выздоровление.
    Она очень переживает за мужа и хочет убедиться, что с ним действительно все в порядке. Ее также беспокоит то, что после возвращения Луиса пропал домашний кот, который прежде никогда не убегал надолго...
    Gracias a dazet.
    Доп. информация:
    Фильм подойдет любителям медленного психологического кино и не годится для поклонников экшна и эпатажа. Кота и его сородичей показывают маловато, роли у них эпизодические.
    Сэмпл: http://multi-up.com/1043906
    Качество видео: DVDRip-AVC
    Формат видео: AVI
    Видео: AVC, 720x416, 1,731, 23,976 fps, 1662 kbps, 0.231 bit/pixel
    Аудио: MPEG Audio, 256 Kbps, 2 ch, 48,0 KHz
    Формат субтитров: softsub (SRT)

    MediaInfo

    Общее
    Полное имя : C:\Users\Asus\Documents\TRANSLATE\El gato desaparece 2011\El gato desaparece 2011.avi
    Формат : AVI
    Формат/Информация : Audio Video Interleave
    Профиль формата : OpenDML
    Размер файла : 1,17 Гбайт
    Продолжительность : 1 ч. 27 м.
    Общий поток : 1919 Кбит/сек
    Программа кодирования : Lavf52.94.0
    Видео
    Идентификатор : 0
    Формат : AVC
    Формат/Информация : Advanced Video Codec
    Профиль формата : Main@L3.0
    Параметр CABAC формата : Да
    Параметр ReFrames формата : 2 кадра
    Идентификатор кодека : H264
    Продолжительность : 1 ч. 27 м.
    Битрейт : 1662 Кбит/сек
    Ширина : 720 пикселей
    Высота : 416 пикселей
    Соотношение сторон : 1,731
    Режим частоты кадров : Переменный
    Частота кадров : 23,976 кадра/сек
    Цветовое пространство : YUV
    Субдискретизация насыщенности : 4:2:0
    Битовая глубина : 8 бит
    Тип развёртки : Прогрессивная
    Бит/(Пиксели*Кадры) : 0.231
    Размер потока : 1,01 Гбайт (86%)
    Библиотека кодирования : x264 core 112 r1834 a51816a
    Настройки программы : cabac=1 / ref=1 / deblock=1:0:0 / analyse=0x1:0 / me=dia / subme=2 / psy=1 / psy_rd=0.00:0.00 / mixed_ref=0 / me_range=16 / chroma_me=1 / trellis=0 / 8x8dct=0 / cqm=0 / deadzone=21,11 / fast_pskip=1 / chroma_qp_offset=0 / threads=2 / sliced_threads=0 / nr=0 / decimate=1 / interlaced=0 / constrained_intra=0 / bframes=3 / b_pyramid=0 / b_adapt=1 / b_bias=0 / direct=3 / weightb=0 / open_gop=0 / weightp=2 / keyint=250 / keyint_min=25 / scenecut=40 / intra_refresh=0 / rc_lookahead=40 / rc=abr / mbtree=1 / bitrate=1662 / ratetol=1.0 / qcomp=0.60 / qpmin=10 / qpmax=51 / qpstep=4 / ip_ratio=1.41 / aq=1:1.00
    Аудио
    Идентификатор : 1
    Формат : MPEG Audio
    Версия формата : Version 1
    Профиль формата : Layer 3
    Режим : Joint stereo
    Расширение режима : MS Stereo
    Идентификатор кодека : 55
    Идентификатор кодека/Подсказка : MP3
    Продолжительность : 1 ч. 27 м.
    Вид битрейта : Постоянный
    Битрейт : 256 Кбит/сек
    Каналы : 2 канала
    Частота : 48,0 КГц
    Метод сжатия : С потерями
    Размер потока : 160 Мбайт (13%)
    Выравнивание : Соединение по промежуткам
    Продолжительность промежутка : 24 мс. (0,58 видеокадр)
    Библиотека кодирования : LAME3.98.4

    пример субтитров

    120
    00:11:16,600 --> 00:11:19,450
    Мартин прислал видео.
    121
    00:11:20,270 --> 00:11:23,250
    Видео к твоему возвращению.
    122
    00:11:24,470 --> 00:11:27,920
    Луиджи? Видео
    к твоему возвращению.
    123
    00:11:28,020 --> 00:11:31,220
    - Как у них дела?
    - Они выглядят довольными.
    124
    00:11:31,820 --> 00:11:36,870
    Ездили в отпуск в Монтану
    и сняли там это видео.
    125
    00:11:40,140 --> 00:11:43,550
    На днях звонил Легисамон.
    126
    00:11:43,920 --> 00:11:47,630
    Он хочет навестить тебя,
    узнать, как дела.
    127
    00:11:49,960 --> 00:11:53,240
    Наверное, он хочет, чтобы
    ты вернулся на кафедру.
    128
    00:11:54,300 --> 00:11:58,560
    Но не спеши, ты не обязан
    отвечать немедленно.
    129
    00:11:59,070 --> 00:12:03,080
    - Может быть, во II семестре.
    - Что ты ему сказала, где я?
    130
    00:12:03,340 --> 00:12:05,960
    - Что?
    - Что ты ему сказала о том, где я?
    131
    00:12:06,060 --> 00:12:08,140
    - Кому?
    - Легисамону.
    132
    00:12:08,750 --> 00:12:11,770
    Он уже знал. Я сказала...
    133
    00:12:12,140 --> 00:12:15,200
    Что ты переутомился от работы.
    134
    00:12:16,480 --> 00:12:20,190
    Неплохо, неплохо!
    135
    00:12:20,600 --> 00:12:23,480
    Переутомился от работы!
    136
    00:12:23,880 --> 00:12:26,600
    Звучит почти как похвала.
    137
    00:12:37,660 --> 00:12:39,760
    - У тебя есть мелочь?
    - В сумке.
    138
    00:12:39,840 --> 00:12:42,050
    - Где сумка?
    - Сзади.
    139
    00:12:48,620 --> 00:12:50,020
    Здесь нет.
    140
    00:12:50,140 --> 00:12:52,940
    Посмотри в кошельке.

    Скриншот c названием фильма

    Скриншоты

    Скачать .torrent

    Скачать торрент-файл бесплатно и на максимальной скорости!

    Как скачивать? · Что такое торрент? · Рейтинг и ограничения

    !ВНИМАНИЕ!
    Сайт не распространяет и не хранит электронные версии произведений, а занимается лишь лишь предоставлением доступа к создаваемому пользователями каталогу ссылок на торрент-файлы, которые содержат только списки хеш-сумм, убедительная просьба с жалобами обращаться напрямую к пользователю. Файлы для обмена на трекере предоставлены пользователями сайта, и администрация не несёт ответственности за их содержание. Просьба не заливать файлы, защищенные авторскими правами, а также файлы нелегального содержания!


    _________________
    [Профиль] [ЛС]
    Показать сообщения:    
    Ответить на тему

    Текущее время: Сегодня, в 11:49

    Часовой пояс: GMT + 2



    Вы не можете начинать темы
    Вы не можете отвечать на сообщения
    Вы не можете редактировать свои сообщения
    Вы не можете удалять свои сообщения
    Вы не можете голосовать в опросах
    Вы не можете прикреплять файлы к сообщениям
    Вы не можете скачивать файлы