BitTorrentTracker PerecTracker.org
BitTorrentTracker PerecTracker.org
    
Регистрация  ·  Вход
 
 · 
Забыли пароль?

  • Тупой и еще тупее 2 / Dumb and Dumber to (Питер Фаррелли / Peter Farrelly, Бобби Фаррелли / Bobby Farrelly) [2014 г., США, Комедия, BDRip] AVO (Карповский)

    Ответить на тему
     
    Автор Сообщение

    Light

    Создавать темы 15-Апр-2015 03:24

           

    [Цитировать]

    Тупой и еще тупее 2 / Dumb and Dumber to
    Год выпуска: 2014
    Страна: США
    Жанр: Комедия
    Продолжительность: 1:49:31
    Перевод: Авторский (одноголосый закадровый), Антон Карповский
    Cубтитры: нет
    Режиссер: Питер Фаррелли / Peter Farrelly, Бобби Фаррелли / Bobby Farrelly
    В ролях: Джим Керри /Jim Carrey/, Джефф Дэниелс /Jeff Daniels/, Роб Риггл /Rob Riggle/, Лори Холден /Laurie Holden/, Рэйчел Мелвин /Rachel Melvin/, Кэтлин Тёрнер /Kathleen Turner/
    Описание: Гарри Данн и Ллойд Кристмас отправляются в путешествие, чтобы разыскать ребенка Гарри, о существовании которого он не подозревал.
    Исходник видео:
    Качество видео: BDRip
    Формат: AVI
    Видео кодек: XviD
    Аудио кодек: AC3
    Видео: 720x384, 23,976 fps, 1523 kbps
    Аудио: 48000Hz, DD 5.1, 384 kbps
    Скачать: SAMPLE 25.60MB
    Доп. информация: За перевод, данного фильма у Антона Карповского, выражается благодарность пользователям форума hdtracker и e180: KpucTo161, vadamk, Cyberclean, Role, KerkP, Tagansky, rammzez, ylnian1986, xerman13, chontvari, kabukiman, Sonny Black, Диммон, Skazhutin, Larry, ZeDOK, Nosferatu, masta, Guyver, Wolf_Larsen, Gouzer.
    P.S.: Всех кто располагает переводами Антона Карповского попрошу в эту тему.

    MediaInfo

    Формат : AVI
    Формат/Информация : Audio Video Interleave
    Размер файла : 1,47 Гбайт
    Продолжительность : 1 ч. 49 м.
    Общий поток : 1916 Кбит/сек
    Программа кодирования : VirtualDubMod 1.5.10.3 | www.virtualdub-fr.org || (build 2550/release)
    Библиотека кодирования : VirtualDubMod build 2550/release
    Видео
    Идентификатор : 0
    Формат : MPEG-4 Visual
    Профиль формата : Advanced Simple@L5
    Параметр BVOP формата : 1
    Параметр QPel формата : Нет
    Параметр GMC формата : Без точки перехода
    Параметр матрицы формата : Default (MPEG)
    Идентификатор кодека : XVID
    Идентификатор кодека/Подсказка : XviD
    Продолжительность : 1 ч. 49 м.
    Битрейт : 1523 Кбит/сек
    Ширина : 720 пикселей
    Высота : 384 пикселя
    Соотношение сторон : 1,85:1
    Частота кадров : 23,976 кадра/сек
    Цветовое пространство : YUV
    Субдискретизация насыщенности : 4:2:0
    Битовая глубина : 8 бит
    Тип развёртки : Прогрессивная
    Метод сжатия : С потерями
    Бит/(Пиксели*Кадры) : 0.230
    Размер потока : 1,16 Гбайт (79%)
    Библиотека кодирования : XviD 73
    Аудио
    Идентификатор : 1
    Формат : AC-3
    Формат/Информация : Audio Coding 3
    Расширение режима : CM (complete main)
    Параметр Endianness формата : Big
    Идентификатор кодека : 2000
    Продолжительность : 1 ч. 49 м.
    Вид битрейта : Постоянный
    Битрейт : 384 Кбит/сек
    Каналы : 6 каналов
    Расположение каналов : Front: L C R, Side: L R, LFE
    Частота : 48,0 КГц
    Битовая глубина : 16 бит
    Метод сжатия : С потерями
    Размер потока : 301 Мбайт (20%)
    Выравнивание : Разделение по промежуткам
    Продолжительность промежутка : 42 мс. (1,00 видеокадр)
    Время предзагрузки промежутка : 500 мс.

    Скриншоты

    Скачать .torrent

    Скачать торрент-файл бесплатно и на максимальной скорости!

    Как скачивать? · Что такое торрент? · Рейтинг и ограничения

    !ВНИМАНИЕ!
    Сайт не распространяет и не хранит электронные версии произведений, а занимается лишь лишь предоставлением доступа к создаваемому пользователями каталогу ссылок на торрент-файлы, которые содержат только списки хеш-сумм, убедительная просьба с жалобами обращаться напрямую к пользователю. Файлы для обмена на трекере предоставлены пользователями сайта, и администрация не несёт ответственности за их содержание. Просьба не заливать файлы, защищенные авторскими правами, а также файлы нелегального содержания!


    _________________
    [Профиль] [ЛС]
    Показать сообщения:    
    Ответить на тему

    Текущее время: Сегодня, в 02:57

    Часовой пояс: GMT + 2



    Вы не можете начинать темы
    Вы не можете отвечать на сообщения
    Вы не можете редактировать свои сообщения
    Вы не можете удалять свои сообщения
    Вы не можете голосовать в опросах
    Вы не можете прикреплять файлы к сообщениям
    Вы не можете скачивать файлы