BitTorrentTracker PerecTracker.org
BitTorrentTracker PerecTracker.org
    
Регистрация  ·  Вход
 
 · 
Забыли пароль?

  • Задержка в развитии / Arrested Development / Сезон: 4 / Серии: 1-15 из 15 (Mitchell Hurwitz / Митчелл Хурвитц) [2013, комедия, WEB-DLRip] Dub (Paramount Comedy)

    Ответить на тему
     
    Автор Сообщение

    Skillters

    Создавать темы 14-Апр-2015 21:01

           

    [Цитировать]

    -Задержка в развитии / Arrested DevelopmentПОЛНЫЙ ЧЕТВЕРТЫЙ СЕЗОН!-Год выпуска: 2013
    Страна: США
    Жанр: комедия
    Продолжительность: 15х ~ 00:31:00
    Перевод: Профессиональный (полное дублирование) /Paramount Comedy/
    Субтитры: нет-Режиссер: Mitchell Hurwitz / Митчелл Хурвитц-В ролях:
    Джейсон Бейтман, Порша де Росси, Уилл Арнетт, Джеффри Тэмбор, Джессика Уолтер, Майкл Сера, Алиа Шокат, Тони Хейл, Дэвид Кросс, Генри Уинклер
    -Описание:
    Культовый сериал возвращается из Великого Небытия! Хотите знать, чем богатая, но непутёвая семейка Блут занималась в последние годы? Да всё тем же: старалась удержаться на плаву, разгребая запутанные взаимоотношения. Онлайн-сервис Netflix сделал невозможное — спустя семь лет после окончания третьего сезона собрал полный кастинг всех главных и второстепенных героев «Задержки в развитии» ради новых 15 эпизодов, которые, по слухам, могут стать мостиком к будущей полнометражной картине.
    Теперь каждая серия идёт в полтора раза дольше и фокусируется на злоключениях кого-то одного из Блутов, предоставляя нам прекрасную возможность в течение сезона взглянуть на одни и те же события под совершенно разными углами.
    - -Качество: WEB-DLRip
    Формат: AVI
    Видео кодек: XviD
    Аудио кодек: MP3
    Видео: 720x400 (1.80:1), 25 fps, XviD build 64 ~1250 kbps avg, 0.17 bit/pixel
    Аудио RUS: 48 kHz, MPEG Layer 3, 2 ch, ~128.00 kbps avg
    Аудио ENG: 48 kHz, MPEG Layer 3, 2 ch, ~128.00 kbps avg

    MediaInfo

    General
    Complete name : C:\Arrested Development Season 4 Paramount Comedy\arrested.development.s04e01.web-dlrip.rus.eng.paramount.comedy.avi
    Format : AVI
    Format/Info : Audio Video Interleave
    File size : 333 MiB
    Duration : 30mn 35s
    Overall bit rate : 1 522 Kbps
    Writing application : VirtualDubMod 1.5.10.3 | www.virtualdub-fr.org || (build 2550/release)
    Writing library : VirtualDubMod build 2550/release
    Video
    ID : 0
    Format : MPEG-4 Visual
    Format profile : Advanced Simple@L5
    Format settings, BVOP : 2
    Format settings, QPel : No
    Format settings, GMC : No warppoints
    Format settings, Matrix : Default (H.263)
    Codec ID : XVID
    Codec ID/Hint : XviD
    Duration : 30mn 35s
    Bit rate : 1 252 Kbps
    Width : 720 pixels
    Height : 400 pixels
    Display aspect ratio : 16:9
    Frame rate : 25.000 fps
    Color space : YUV
    Chroma subsampling : 4:2:0
    Bit depth : 8 bits
    Scan type : Progressive
    Compression mode : Lossy
    Bits/(Pixel*Frame) : 0.174
    Stream size : 274 MiB (82%)
    Writing library : XviD 64
    Audio #1
    ID : 1
    Format : MPEG Audio
    Format version : Version 1
    Format profile : Layer 3
    Mode : Joint stereo
    Mode extension : MS Stereo
    Codec ID : 55
    Codec ID/Hint : MP3
    Duration : 30mn 35s
    Bit rate mode : Constant
    Bit rate : 128 Kbps
    Channel(s) : 2 channels
    Sampling rate : 48.0 KHz
    Compression mode : Lossy
    Stream size : 28.0 MiB (8%)
    Alignment : Aligned on interleaves
    Interleave, duration : 40 ms (1.00 video frame)
    Interleave, preload duration : 504 ms
    Audio #2
    ID : 2
    Format : MPEG Audio
    Format version : Version 1
    Format profile : Layer 3
    Mode : Joint stereo
    Mode extension : MS Stereo
    Codec ID : 55
    Codec ID/Hint : MP3
    Duration : 30mn 35s
    Bit rate mode : Constant
    Bit rate : 128 Kbps
    Channel(s) : 2 channels
    Sampling rate : 48.0 KHz
    Compression mode : Lossy
    Stream size : 28.0 MiB (8%)
    Alignment : Aligned on interleaves
    Interleave, duration : 40 ms (1.00 video frame)
    Interleave, preload duration : 504 ms
    Writing library : LAME3.99r
    Encoding settings : -m j -V 4 -q 0 -lowpass 17 -b 128

    Скриншоты

    Скачать .torrent

    Скачать торрент-файл бесплатно и на максимальной скорости!

    Как скачивать? · Что такое торрент? · Рейтинг и ограничения

    !ВНИМАНИЕ!
    Сайт не распространяет и не хранит электронные версии произведений, а занимается лишь лишь предоставлением доступа к создаваемому пользователями каталогу ссылок на торрент-файлы, которые содержат только списки хеш-сумм, убедительная просьба с жалобами обращаться напрямую к пользователю. Файлы для обмена на трекере предоставлены пользователями сайта, и администрация не несёт ответственности за их содержание. Просьба не заливать файлы, защищенные авторскими правами, а также файлы нелегального содержания!


    _________________
    [Профиль] [ЛС]
    Показать сообщения:    
    Ответить на тему

    Текущее время: Сегодня, в 11:56

    Часовой пояс: GMT + 2



    Вы не можете начинать темы
    Вы не можете отвечать на сообщения
    Вы не можете редактировать свои сообщения
    Вы не можете удалять свои сообщения
    Вы не можете голосовать в опросах
    Вы не можете прикреплять файлы к сообщениям
    Вы не можете скачивать файлы