BitTorrentTracker PerecTracker.org
BitTorrentTracker PerecTracker.org
    
Регистрация  ·  Вход
 
 · 
Забыли пароль?

  • С чистого листа (Иван Криворучко) [2013, Россия, мелодрама, HDTV 1080i] + Original Rus

    Ответить на тему
     
    Автор Сообщение

    Light

    Создавать темы 14-Апр-2015 19:00

           

    [Цитировать]

    С чистого листа
    Страна: Россия
    Студия: Тесей продакшн
    Жанр: мелодрама
    Год выпуска: 2013
    Продолжительность: 01:37:45
    Перевод: Не требуется
    Cубтитры: нет
    Оригинальная аудиодорожка: русский
    Режиссер: Иван Криворучко
    В ролях: Светлана Смирнова-Марцинкевич, Тимофей Каратаев, Марта Голубева, Инна Коляда, Тамара Миронова, Елена Шабад, Андрей Кривецкий, Андрей Карако, Юлия Полубинская, Валентин Соловьев, Оксана Лесная
    Описание:
    Аня Синицина живёт в небольшом городке, работает продавцом в универмаге и не мечтает о большем. Когда-то она любила одарённого литературным талантом одноклассника Антона Кремнёва, но он вздыхал только по первой красавице школы Лизе Фёдоровой, а после выпускных экзаменов вовсе исчез из виду. Жизнь Ани резко меняется после неожиданной встречи с первой любовью. Оказывается, Антон не стал писателем, а работает простым охранником и главное – он позвал Аню на свидание! Постепенно между молодыми людьми начинают развиваться отношения, пара собирается пожениться, но тут в городе появляется красотка Лиза… Устоит ли Антон перед соблазном? И как теперь сложится жизнь этих троих.

    Сэмпл: http://multi-up.com/1043507
    Тип релиза: HDTV 1080i
    Контейнер: TS
    Видео: AVC, 1920x1080, (16:9), 25 fps, 11.6 Mbps, 0.224 bit/pixel
    Аудио: Русский, MP2, 48 kHz, 2 ch, 192 kbps

    MediaInfo

    General
    ID : 1 (0x1)
    Complete name : C:\С чистого листа_2013_HDTV 1080i_RU _ -dean10.ts
    Format : MPEG-TS
    File size : 8.48 GiB
    Duration : 1h 37mn
    Overall bit rate mode : Variable
    Overall bit rate : 12.4 Mbps
    Video
    ID : 306 (0x132)
    Menu ID : 20106 (0x4E8A)
    Format : AVC
    Format/Info : Advanced Video Codec
    Format profile : High@L4
    Format settings, CABAC : Yes
    Format settings, ReFrames : 4 frames
    Codec ID : 27
    Duration : 1h 37mn
    Bit rate : 11.6 Mbps
    Width : 1 920 pixels
    Height : 1 080 pixels
    Display aspect ratio : 16:9
    Frame rate : 25.000 fps
    Standard : Component
    Color space : YUV
    Chroma subsampling : 4:2:0
    Bit depth : 8 bits
    Scan type : Interlaced
    Scan order : Top Field First
    Bits/(Pixel*Frame) : 0.224
    Stream size : 7.93 GiB (93%)
    Color range : Limited
    Color primaries : BT.709
    Transfer characteristics : BT.709
    Matrix coefficients : BT.709
    Audio
    ID : 406 (0x196)
    Menu ID : 20106 (0x4E8A)
    Format : MPEG Audio
    Format version : Version 1
    Format profile : Layer 2
    Codec ID : 3
    Duration : 1h 37mn
    Bit rate mode : Constant
    Bit rate : 192 Kbps
    Channel(s) : 2 channels
    Sampling rate : 48.0 KHz
    Compression mode : Lossy
    Stream size : 134 MiB (2%)
    Language : English

    Скриншоты

    Скачать .torrent

    Скачать торрент-файл бесплатно и на максимальной скорости!

    Как скачивать? · Что такое торрент? · Рейтинг и ограничения

    !ВНИМАНИЕ!
    Сайт не распространяет и не хранит электронные версии произведений, а занимается лишь лишь предоставлением доступа к создаваемому пользователями каталогу ссылок на торрент-файлы, которые содержат только списки хеш-сумм, убедительная просьба с жалобами обращаться напрямую к пользователю. Файлы для обмена на трекере предоставлены пользователями сайта, и администрация не несёт ответственности за их содержание. Просьба не заливать файлы, защищенные авторскими правами, а также файлы нелегального содержания!


    _________________
    [Профиль] [ЛС]
    Показать сообщения:    
    Ответить на тему

    Текущее время: Сегодня, в 12:15

    Часовой пояс: GMT + 2



    Вы не можете начинать темы
    Вы не можете отвечать на сообщения
    Вы не можете редактировать свои сообщения
    Вы не можете удалять свои сообщения
    Вы не можете голосовать в опросах
    Вы не можете прикреплять файлы к сообщениям
    Вы не можете скачивать файлы