BitTorrentTracker PerecTracker.org
BitTorrentTracker PerecTracker.org
    
Регистрация  ·  Вход
 
 · 
Забыли пароль?

  • Приключения Али-Бабы и сорока разбойников (Латиф Файзиев, Умеш Мехра) [1979, сказка, DVDRip-AVC]

    Ответить на тему
     
    Автор Сообщение

    Light

    Создавать темы 14-Апр-2015 14:48

           

    [Цитировать]

    Приключения Али-Бабы и сорока разбойников-Жанр: сказка
    Год выпуска: 1979
    Продолжительность: 02:09:44-Режиссёр: Латиф Файзиев, Умеш Мехра-В ролях:
    Дхармендра, Хема Малини, Ролан Быков, Закир Мухамеджанов, Софико Чуаурели, Якуб Ахмедов, Зейнат Аман, Ходжадурды Нарлиев, Фрунзик Мкртчян, Хамза Умаров, Джавлон Хамраев, Елена Санаева, Мадан Пури, Прем Чопра
    Описание:
    История о добром и благородном простолюдине Али-Бабе, который пытается разыскать пропавшего отца. На пути ему предстоит пережить немало приключений, спасти индийскую принцессу и победить самого Абу-Хасана, предводителя разбойников.-Исходник | Сэмпл | Кинопоиск-Качество видео: DVDRip-AVC, спасибо ilya_l
    Формат видео: MKV
    Видео: x264 (High@L4.1); 714@1016х436; Display aspect ratio: 2.330:1, 25.000 fps, 2275 Kbps
    Аудио: Оригинал: AC-3; 16 bit 48 Khz; 2.0ch 128 Kbps; CBR
    MediaInfo

    -

    x264 log

    avs [info]: 714x436p 64:45 @ 25/1 fps (cfr)
    x264 [info]: using SAR=64/45
    x264 [info]: using cpu capabilities: MMX2 SSE2Fast SSSE3 SSE4.2
    x264 [info]: profile High, level 4.1
    x264 [info]: frame I:1098 Avg QP:18.02 size: 47331
    x264 [info]: frame P:47024 Avg QP:19.96 size: 20596
    x264 [info]: frame B:146500 Avg QP:21.88 size: 8146
    x264 [info]: consecutive B-frames: 2.5% 3.8% 11.6% 28.1% 16.8% 33.7% 2.5% 0.6% 0.3% 0.1%
    x264 [info]: mb I I16..4: 3.7% 81.6% 14.7%
    x264 [info]: mb P I16..4: 1.0% 17.2% 2.6% P16..4: 30.1% 34.5% 12.3% 1.5% 0.1% skip: 0.7%
    x264 [info]: mb B I16..4: 0.1% 2.0% 0.5% B16..8: 34.6% 24.6% 4.1% direct:12.1% skip:22.1% L0:34.2% L1:39.4% BI:26.3%
    x264 [info]: 8x8 transform intra:81.3% inter:64.0%
    x264 [info]: direct mvs spatial:99.0% temporal:1.0%
    x264 [info]: coded y,uvDC,uvAC intra: 87.6% 87.6% 64.9% inter: 42.4% 44.5% 11.9%
    x264 [info]: i16 v,h,dc,p: 45% 12% 6% 37%
    x264 [info]: i8 v,h,dc,ddl,ddr,vr,hd,vl,hu: 16% 6% 7% 8% 12% 15% 10% 14% 11%
    x264 [info]: i4 v,h,dc,ddl,ddr,vr,hd,vl,hu: 46% 5% 5% 5% 8% 10% 7% 8% 6%
    x264 [info]: i8c dc,h,v,p: 33% 22% 27% 19%
    x264 [info]: Weighted P-Frames: Y:29.8% UV:20.0%
    x264 [info]: ref P L0: 42.5% 13.8% 15.1% 6.6% 4.6% 3.6% 2.9% 1.8% 1.6% 1.4% 1.3% 1.1% 1.0% 1.0% 0.9% 0.8%
    x264 [info]: ref B L0: 83.0% 8.6% 2.5% 1.5% 0.9% 0.8% 0.6% 0.4% 0.3% 0.3% 0.3% 0.3% 0.2% 0.2% 0.1%
    x264 [info]: ref B L1: 96.6% 3.4%
    x264 [info]: kb/s:2274.98
    x264 [total]: encoded 194622 frames, 11.77 fps, 2274.99 kb/s
    -General
    Unique ID : 214087061110556580087180447273511702555 (0xA10FAB0D2E33A9449C52A60DB7D6501B)
    Complete name : Приключения Али-Бабы и сорока разбойников.1979.mkv
    Format : Matroska
    Format version : Version 2
    File size : 2.18 GiB
    Duration : 2h 9mn
    Overall bit rate : 2 405 Kbps
    Movie name : «Приключения Али-Бабы и сорока разбойников»
    Encoded date : UTC 2015-04-13 20:06:02
    Writing application : mkvmerge v5.8.0 ('No Sleep / Pillow') built on Sep 2 2012 15:37:04
    Writing library : libebml v1.2.3 + libmatroska v1.3.0
    Comment : DVDRip-AVC
    Originally released : April 13th 2015
    Encoded by : george$t®
    Video
    ID : 1
    Format : AVC
    Format/Info : Advanced Video Codec
    Format profile : High@L4.1
    Format settings, CABAC : Yes
    Format settings, ReFrames : 16 frames
    Codec ID : V_MPEG4/ISO/AVC
    Duration : 2h 9mn
    Bit rate : 2 275 Kbps
    Width : 714 pixels
    Height : 436 pixels
    Display aspect ratio : 2.35:1
    Original display aspect rat : 2.35:1
    Frame rate mode : Constant
    Frame rate : 25.000 fps
    Color space : YUV
    Chroma subsampling : 4:2:0
    Bit depth : 8 bits
    Scan type : Progressive
    Bits/(Pixel*Frame) : 0.292
    Stream size : 2.02 GiB (93%)
    Title : Приключения Али-Бабы и сорока разбойников.1979
    Writing library : x264 core 146 r2538 121396c
    Encoding settings : cabac=1 / ref=16 / deblock=1:-2:-2 / analyse=0x3:0x133 / me=umh / subme=11 / psy=1 / psy_rd=1.10:0.10 / mixed_ref=1 / me_range=48 / chroma_me=1 / trellis=2 / 8x8dct=1 / cqm=0 / deadzone=21,11 / fast_pskip=0 / chroma_qp_offset=-3 / threads=12 / lookahead_threads=2 / sliced_threads=0 / nr=0 / decimate=0 / interlaced=0 / bluray_compat=0 / constrained_intra=0 / bframes=9 / b_pyramid=2 / b_adapt=2 / b_bias=0 / direct=3 / weightb=1 / open_gop=0 / weightp=2 / keyint=250 / keyint_min=25 / scenecut=40 / intra_refresh=0 / rc_lookahead=40 / rc=2pass / mbtree=0 / bitrate=2275 / ratetol=1.0 / qcomp=0.70 / qpmin=0 / qpmax=69 / qpstep=4 / cplxblur=20.0 / qblur=0.5 / vbv_maxrate=50000 / vbv_bufsize=62500 / nal_hrd=none / filler=0 / ip_ratio=1.30 / pb_ratio=1.20 / aq=1:0.80
    Language : Russian
    Default : Yes
    Forced : No
    Color primaries : BT.470 System M
    Transfer characteristics : BT.470 System B, BT.470 System G
    Matrix coefficients : BT.601
    Color range : Limited
    Audio
    ID : 2
    Format : AC-3
    Format/Info : Audio Coding 3
    Mode extension : CM (complete main)
    Format settings, Endianness : Big
    Codec ID : A_AC3
    Duration : 2h 9mn
    Bit rate mode : Constant
    Bit rate : 128 Kbps
    Channel(s) : 2 channels
    Channel positions : Front: L R
    Sampling rate : 48.0 KHz
    Bit depth : 16 bits
    Compression mode : Lossy
    Stream size : 119 MiB (5%)
    Title : Оригинал: AC-3; 16 bit 48 Khz; 2.0ch 128 Kbps; CBR
    Language : Russian
    Default : Yes
    Forced : No
    Menu
    00:00:00.000 : ru:I. Нападение на караван
    00:02:00.080 : ru:II. Взрыв дамбы
    00:14:00.160 : ru:III. Песня Фатимы
    00:28:55.840 : ru:IV. Убийство раджи
    00:36:31.000 : ru:V. Нападение в горах
    00:55:20.640 : ru:VI. Поиски принцессы
    01:09:09.920 : ru:VII. Тайна пещеры
    01:19:20.720 : ru:VIII. Жадность Касыма
    01:27:25.920 : ru:IX. Месть Абу-Хасана
    01:41:29.840 : ru:X. Две бороды правителя
    Скачать .torrent

    Скачать торрент-файл бесплатно и на максимальной скорости!

    Как скачивать? · Что такое торрент? · Рейтинг и ограничения

    !ВНИМАНИЕ!
    Сайт не распространяет и не хранит электронные версии произведений, а занимается лишь лишь предоставлением доступа к создаваемому пользователями каталогу ссылок на торрент-файлы, которые содержат только списки хеш-сумм, убедительная просьба с жалобами обращаться напрямую к пользователю. Файлы для обмена на трекере предоставлены пользователями сайта, и администрация не несёт ответственности за их содержание. Просьба не заливать файлы, защищенные авторскими правами, а также файлы нелегального содержания!


    _________________
    [Профиль] [ЛС]
    Показать сообщения:    
    Ответить на тему

    Текущее время: Сегодня, в 14:16

    Часовой пояс: GMT + 2



    Вы не можете начинать темы
    Вы не можете отвечать на сообщения
    Вы не можете редактировать свои сообщения
    Вы не можете удалять свои сообщения
    Вы не можете голосовать в опросах
    Вы не можете прикреплять файлы к сообщениям
    Вы не можете скачивать файлы