BitTorrentTracker PerecTracker.org
BitTorrentTracker PerecTracker.org
    
Регистрация  ·  Вход
 
 · 
Забыли пароль?

  • Блудливая Калифорния / Californication / Сезон: 7 / Серии: 1-12 из 12 (Адам Бернштейн, Джон Дал, Дэвид Фон Энкен) [2014, комедия, драма, HDTVRip] MVO (NewStudio & NovaFilm) + Original

    Ответить на тему
     
    Автор Сообщение

    Skillters

    Создавать темы 14-Апр-2015 14:44

           

    [Цитировать]

    Блудливая Калифорния / CalifornicationПОЛНЫЙ СЕДЬМОЙ СЕЗОН!-Год выпуска: 2014
    Страна: США
    Жанр: комедия, драма
    Продолжительность: 12х ~00:30:00
    Перевод: Профессиональный (многоголосый, закадровый) NewStudio & NovaFilm
    Субтитры: нет
    -Режиссёр: Адам Бернштейн, Джон Дал, Дэвид Фон Энкен-В ролях:
    Дэвид Духовны, Наташа МакЭлхоун, Мадлен Мартин, Эван Хэндлер, Памела Адлон, Мадлен Зима, Каллум Кейт Ренни, Рэйчел Майнер, Карла Галло, Ева Амурри-Описание:
    Талантливый и некогда известный писатель Хэнк [цензура] переживает творческий кризис. Отсутствие вдохновения он с лихвой компенсирует алкоголем, наркотиками и красивыми женщинами. Подкупающая прямота, чувство юмора и яркая харизма привлекают к нему сердца калифорнийских красавиц. Но его сердце занято — он любящий отец своей 13-летней дочери, и всё ещё влюблён в её маму — свою бывшую подружку…
    - -Качество: HDTVRip
    Формат: AVI
    Видео кодек: XviD
    Аудио кодек: AC3
    Видео: 720х400 (1.80:1), 23.976 fps, XviD ~1235 kbps avg, 0.179 bit/pixel
    Аудио: Rus 48 kHz, 2 ch, 192 kbps - NewStudio & NovaFilm
    Аудио: Eng 48 kHz, 2 ch, 192 kbps - Original

    Список серий

    01: Levon
    02: Julia
    03: Like Father Like Son
    04: Dicks
    05: Getting the Poison Out
    06: Kickoff
    07: Smile
    08: 30 Minutes or Less
    09: Faith, Hope, Love
    10: Dinner with Friends
    11: Daughter
    12: Grace

    MediaInfo

    Общее
    Полное имя : californication.s07e01.hdtv.rus.newstudio.novafilm.avi
    Формат : AVI
    Формат/Информация : Audio Video Interleave
    Размер файла : 333 Мбайт
    Продолжительность : 28 м.
    Общий поток : 1632 Кбит/сек
    Программа кодирования : Lavf55.36.100
    Видео
    Идентификатор : 0
    Формат : MPEG-4 Visual
    Профиль формата : Advanced Simple@L5
    Параметр BVOP формата : 2
    Параметр QPel формата : Нет
    Параметр GMC формата : Без точки перехода
    Параметр матрицы формата : Default (H.263)
    Режим смешивания : Сжатый битовый поток
    Идентификатор кодека : XVID
    Идентификатор кодека/Подсказка : XviD
    Продолжительность : 28 м.
    Битрейт : 1237 Кбит/сек
    Ширина : 720 пикселей
    Высота : 400 пикселей
    Соотношение сторон : 16:9
    Частота кадров : 23,976 кадра/сек
    Цветовое пространство : YUV
    Субдискретизация насыщенности : 4:2:0
    Битовая глубина : 8 бит
    Тип развёртки : Прогрессивная
    Метод сжатия : С потерями
    Бит/(Пиксели*Кадры) : 0.179
    Размер потока : 252 Мбайт (75%)
    Библиотека кодирования : XviD 64
    Аудио #1
    Идентификатор : 1
    Формат : AC-3
    Формат/Информация : Audio Coding 3
    Расширение режима : CM (complete main)
    Параметр Endianness формата : Big
    Идентификатор кодека : 2000
    Продолжительность : 28 м.
    Вид битрейта : Постоянный
    Битрейт : 192 Кбит/сек
    Каналы : 2 канала
    Расположение каналов : Front: L R
    Частота : 48,0 КГц
    Битовая глубина : 16 бит
    Метод сжатия : С потерями
    Размер потока : 39,2 Мбайт (12%)
    Выравнивание : Соединение по промежуткам
    Продолжительность промежутка : 32 мс. (0,76 видеокадр)
    Аудио #2
    Идентификатор : 2
    Формат : AC-3
    Формат/Информация : Audio Coding 3
    Расширение режима : CM (complete main)
    Параметр Endianness формата : Big
    Идентификатор кодека : 2000
    Продолжительность : 28 м.
    Вид битрейта : Постоянный
    Битрейт : 192 Кбит/сек
    Каналы : 2 канала
    Расположение каналов : Front: L R
    Частота : 48,0 КГц
    Битовая глубина : 16 бит
    Метод сжатия : С потерями
    Размер потока : 39,1 Мбайт (12%)
    Выравнивание : Соединение по промежуткам
    Продолжительность промежутка : 32 мс. (0,77 видеокадр)

    Скриншоты

    Скачать .torrent

    Скачать торрент-файл бесплатно и на максимальной скорости!

    Как скачивать? · Что такое торрент? · Рейтинг и ограничения

    !ВНИМАНИЕ!
    Сайт не распространяет и не хранит электронные версии произведений, а занимается лишь лишь предоставлением доступа к создаваемому пользователями каталогу ссылок на торрент-файлы, которые содержат только списки хеш-сумм, убедительная просьба с жалобами обращаться напрямую к пользователю. Файлы для обмена на трекере предоставлены пользователями сайта, и администрация не несёт ответственности за их содержание. Просьба не заливать файлы, защищенные авторскими правами, а также файлы нелегального содержания!


    _________________
    [Профиль] [ЛС]
    Показать сообщения:    
    Ответить на тему

    Текущее время: Сегодня, в 18:18

    Часовой пояс: GMT + 2



    Вы не можете начинать темы
    Вы не можете отвечать на сообщения
    Вы не можете редактировать свои сообщения
    Вы не можете удалять свои сообщения
    Вы не можете голосовать в опросах
    Вы не можете прикреплять файлы к сообщениям
    Вы не можете скачивать файлы