BitTorrentTracker PerecTracker.org
BitTorrentTracker PerecTracker.org
    
Регистрация  ·  Вход
 
 · 
Забыли пароль?

  • Блудливая Калифорния / Californication / Сезон: 6 / Серии: 1-12 из 12 (Адам Бернштейн, Джон Дал, Дэвид Фон Энкен) [2013 г., комедия, драма, HDTVRip] MVO (NovaFilm)

    Ответить на тему
     
    Автор Сообщение

    Skillters

    Создавать темы 14-Апр-2015 14:31

           

    [Цитировать]

    Блудливая Калифорния / CalifornicationПОЛНЫЙ ШЕСТОЙ СЕЗОН!-Год выпуска: 2013
    Страна: США
    Жанр: комедия, драма
    Продолжительность: 12х ~00:30:00
    Перевод: Профессиональный (многоголосый, закадровый) NovaFilm
    Субтитры: Нет
    -Режиссёр: Адам Бернштейн, Джон Дал, Дэвид Фон Энкен-В ролях:
    Дэвид Духовны, Наташа МакЭлхоун, Мадлен Мартин, Эван Хэндлер, Памела Адлон, Мадлен Зима, Каллум Кейт Ренни, Рэйчел Майнер, Карла Галло, Ева Амурри-Описание:
    Талантливый и некогда известный писатель Хэнк [цензура] переживает творческий кризис. Отсутствие вдохновения он с лихвой компенсирует алкоголем, наркотиками и красивыми женщинами. Подкупающая прямота, чувство юмора и яркая харизма привлекают к нему сердца калифорнийских красавиц. Но его сердце занято — он любящий отец своей 13-летней дочери, и всё ещё влюблён в её маму — свою бывшую подружку…
    - -Качество: HDTVRip
    Формат: AVI
    Видео кодек: XviD
    Аудио кодек: AC3
    Видео: 720x400, 23.976 fps, 1041 kbps, 0.151 bit/pixel
    Аудио (RU): 48 kHz, 2 ch, 192 kbps [NovaFilm]
    Аудио (EN): 48 kHz, 2 ch, 192 kbps [Original]

    Список серий

    [13.01.2013] 01. «The Unforgiven» (рус. «Непрощённый»)
    [20.01.2013] 02. «Quitters» (рус. «Рецидивисты»)
    [27.01.2013] 03. «Dead Rock Stars» (рус. «Мёртвые рок-звёзды»)
    [10.02.2013] 04. «Hell Bent for Leather» (рус. «Чертовски быстро»)
    [17.02.2013] 05. «Rock and a Hard Place» (рус. «Молот и наковальня»)
    [24.02.2013] 06. «In the Clouds» (рус. «В облаках»)
    [03.03.2013] 07. «The Dope Show» (рус. «Экскурсия»)
    [10.03.2013] 08. «Everybody's a Fucking Critic» (рус. «Вокруг одни критики»)
    [17.03.2013] 09. «Mad Dogs & Englishmen» (рус. «Бешеные псы и англичане»)
    [24.03.2013] 10. «Blind Faith» (рус. «Слепая вера»)
    [31.03.2013] 11. «The Abby» (рус. «Эбби»)
    [07.04.2013] 12. «I'll Lay My Monsters Down» (рус. «Я успокою своих монстров»)

    MI

    General
    Complete name : D:\Californication - Season 6 (NovaFilm)\californication.s06e01.hdtv.rus.eng. СПАМ
    Format : AVI
    Format/Info : Audio Video Interleave
    File size : 300 MiB
    Duration : 29mn 7s
    Overall bit rate : 1 439 Kbps
    Writing application : VirtualDubMod 1.5.10.2 (build 2542/release)
    Writing library : VirtualDubMod build 2542/release
    Video
    ID : 0
    Format : MPEG-4 Visual
    Format profile : Advanced Simple@L5
    Format settings, BVOP : 2
    Format settings, QPel : No
    Format settings, GMC : No warppoints
    Format settings, Matrix : Default (H.263)
    Muxing mode : Packed bitstream
    Codec ID : XVID
    Codec ID/Hint : XviD
    Duration : 29mn 7s
    Bit rate : 1 041 Kbps
    Width : 720 pixels
    Height : 400 pixels
    Display aspect ratio : 16:9
    Frame rate : 23.976 fps
    Color space : YUV
    Chroma subsampling : 4:2:0
    Bit depth : 8 bits
    Scan type : Progressive
    Compression mode : Lossy
    Bits/(Pixel*Frame) : 0.151
    Stream size : 217 MiB (72%)
    Writing library : XviD 64
    Audio #1
    ID : 1
    Format : AC-3
    Format/Info : Audio Coding 3
    Mode extension : CM (complete main)
    Codec ID : 2000
    Duration : 29mn 6s
    Bit rate mode : Constant
    Bit rate : 192 Kbps
    Channel(s) : 2 channels
    Channel positions : Front: L R
    Sampling rate : 48.0 KHz
    Bit depth : 16 bits
    Compression mode : Lossy
    Stream size : 40.0 MiB (13%)
    Alignment : Split accross interleaves
    Interleave, duration : 42 ms (1.00 video frame)
    Interleave, preload duration : 500 ms
    Audio #2
    ID : 2
    Format : AC-3
    Format/Info : Audio Coding 3
    Mode extension : CM (complete main)
    Codec ID : 2000
    Duration : 29mn 6s
    Bit rate mode : Constant
    Bit rate : 192 Kbps
    Channel(s) : 2 channels
    Channel positions : Front: L R
    Sampling rate : 48.0 KHz
    Bit depth : 16 bits
    Compression mode : Lossy
    Stream size : 40.0 MiB (13%)
    Alignment : Split accross interleaves
    Interleave, duration : 42 ms (1.00 video frame)
    Interleave, preload duration : 500 ms

    Скриншоты





    Скачать .torrent

    Скачать торрент-файл бесплатно и на максимальной скорости!

    Как скачивать? · Что такое торрент? · Рейтинг и ограничения

    !ВНИМАНИЕ!
    Сайт не распространяет и не хранит электронные версии произведений, а занимается лишь лишь предоставлением доступа к создаваемому пользователями каталогу ссылок на торрент-файлы, которые содержат только списки хеш-сумм, убедительная просьба с жалобами обращаться напрямую к пользователю. Файлы для обмена на трекере предоставлены пользователями сайта, и администрация не несёт ответственности за их содержание. Просьба не заливать файлы, защищенные авторскими правами, а также файлы нелегального содержания!


    _________________
    [Профиль] [ЛС]
    Показать сообщения:    
    Ответить на тему

    Текущее время: Сегодня, в 12:13

    Часовой пояс: GMT + 2



    Вы не можете начинать темы
    Вы не можете отвечать на сообщения
    Вы не можете редактировать свои сообщения
    Вы не можете удалять свои сообщения
    Вы не можете голосовать в опросах
    Вы не можете прикреплять файлы к сообщениям
    Вы не можете скачивать файлы