BitTorrentTracker PerecTracker.org
BitTorrentTracker PerecTracker.org
    
Регистрация  ·  Вход
 
 · 
Забыли пароль?

  • Блудливая Калифорния / Californication / Сезон: 4 / Серии: 1-12 из 12 (Адам Бернштейн, Джон Дал, Дэвид Фон Энкен) [2011 г., комедия, драма, WEB-DLRip] MVO (NovaFilm)

    Ответить на тему
     
    Автор Сообщение

    Skillters

    Создавать темы 14-Апр-2015 14:10

           

    [Цитировать]

    Блудливая Калифорния / CalifornicationПОЛНЫЙ ЧЕТВЕРТЫЙ СЕЗОН!-Год выпуска: 2011
    Страна: США
    Жанр: комедия, драма
    Продолжительность: 12х ~00:28:00
    Перевод: Профессиональный (многоголосый, закадровый) NovaFilm
    Субтитры: Русские, Английские
    -Режиссёр: Адам Бернштейн, Джон Дал, Дэвид Фон Энкен-В ролях:
    Дэвид Духовны, Наташа МакЭлхоун, Мадлен Мартин, Эван Хэндлер, Памела Адлон, Мадлен Зима, Каллум Кейт Ренни, Рэйчел Майнер, Карла Галло, Ева Амурри-Описание:
    Талантливый и некогда известный писатель Хэнк [цензура] переживает творческий кризис. Отсутствие вдохновения он с лихвой компенсирует алкоголем, наркотиками и красивыми женщинами. Подкупающая прямота, чувство юмора и яркая харизма привлекают к нему сердца калифорнийских красавиц. Но его сердце занято — он любящий отец своей 13-летней дочери, и всё ещё влюблён в её маму — свою бывшую подружку…
    - -Качество: WEB-DLRip
    Формат: AVI
    Видео кодек: XviD
    Аудио кодек: MP3
    Видео: 624x352 (16:9), 23.976 fps, ~1200 kbps, ~0.200 bit/pixel
    Аудио Rus: 48 kHz, 2 ch, ~128 kbps |NovaFilm|
    Аудио Eng: 48 kHz, 2 ch, ~128 kbps |Original|

    MediaInfo

    Общее
    Полное имя : F:\Californication.s04e01.WEB-DLRip.Rus.Eng.NovaFilm.avi
    Формат : AVI
    Формат/Информация : Audio Video Interleave
    Размер файла : 301 Мбайт
    Продолжительность : 28 м.
    Общий поток : 1457 Кбит/сек
    Программа кодирования : VirtualDubMod 1.5.10.2 (build 2540/release)
    Библиотека кодирования : VirtualDubMod build 2540/release
    Видео
    Идентификатор : 0
    Формат : MPEG-4 Visual
    Профиль формата : Advanced Simple@L5
    Параметр BVOP формата : 1
    Параметр QPel формата : Нет
    Параметр GMC формата : Без точки перехода
    Параметр матрицы формата : Выборочная
    Идентификатор кодека : XVID
    Идентификатор кодека/Подсказка : XviD
    Продолжительность : 28 м.
    Битрейт : 1187 Кбит/сек
    Ширина : 624 пикселя
    Высота : 352 пикселя
    Соотношение сторон : 16:9
    Частота кадров : 23,976 кадра/сек
    Цветовое пространство : YUV
    Субдискретизация насыщенности : 4:2:0
    Битовая глубина : 8 бит
    Тип развёртки : Прогрессивная
    Метод сжатия : С потерями
    Бит/(Пиксели*Кадры) : 0.225
    Размер потока : 245 Мбайт (81%)
    Библиотека кодирования : XviD 73
    Аудио #1
    Идентификатор : 1
    Формат : MPEG Audio
    Версия формата : Version 1
    Профиль формата : Layer 3
    Режим : Joint stereo
    Идентификатор кодека : 55
    Идентификатор кодека/Подсказка : MP3
    Продолжительность : 28 м.
    Вид битрейта : Постоянный
    Битрейт : 128 Кбит/сек
    Каналы : 2 канала
    Частота : 48,0 КГц
    Метод сжатия : С потерями
    Размер потока : 26,5 Мбайт (9%)
    Выравнивание : Соединение по промежуткам
    Продолжительность промежутка : 42 мс. (1,00 видеокадр)
    Время предзагрузки промежутка : 504 мс.
    Библиотека кодирования : LAME3.99r
    Настройки программы : -m j -V 4 -q 2 -lowpass 17 -b 128
    Аудио #2
    Идентификатор : 2
    Формат : MPEG Audio
    Версия формата : Version 1
    Профиль формата : Layer 3
    Режим : Joint stereo
    Идентификатор кодека : 55
    Идентификатор кодека/Подсказка : MP3
    Продолжительность : 28 м.
    Вид битрейта : Постоянный
    Битрейт : 128 Кбит/сек
    Каналы : 2 канала
    Частота : 48,0 КГц
    Метод сжатия : С потерями
    Размер потока : 26,5 Мбайт (9%)
    Выравнивание : Соединение по промежуткам
    Продолжительность промежутка : 42 мс. (1,00 видеокадр)
    Время предзагрузки промежутка : 504 мс.
    Библиотека кодирования : LAME3.99r
    Настройки программы : -m j -V 4 -q 2 -lowpass 17 -b 128

    Список серий

  • Exile on Main St. / Изгой
  • Suicide Solution / Самоубийственное Решение
  • Home Sweet Home / Дом, Милый Дом
  • Monkey Business / Мартышкин Труд
  • Freeze-Frame / Стоп-Кадр
  • Lawyers, Guns and Money / Адвокаты, стволы и деньги
  • The Recused / Самоотводы
  • Lights, Camera, Asshole / Свет, Камера, Засранец
  • Another Perfect Day / Еще Один Идеальный День
  • The Trial / Процесс
  • The Last Supper / Последняя Вечеря
  • ...And Justice for All / ...И Справедливость Для Всех
  • Скриншоты


    Скачать .torrent

    Скачать торрент-файл бесплатно и на максимальной скорости!

    Как скачивать? · Что такое торрент? · Рейтинг и ограничения

    !ВНИМАНИЕ!
    Сайт не распространяет и не хранит электронные версии произведений, а занимается лишь лишь предоставлением доступа к создаваемому пользователями каталогу ссылок на торрент-файлы, которые содержат только списки хеш-сумм, убедительная просьба с жалобами обращаться напрямую к пользователю. Файлы для обмена на трекере предоставлены пользователями сайта, и администрация не несёт ответственности за их содержание. Просьба не заливать файлы, защищенные авторскими правами, а также файлы нелегального содержания!


    _________________
    [Профиль] [ЛС]
    Показать сообщения:    
    Ответить на тему

    Текущее время: Сегодня, в 18:17

    Часовой пояс: GMT + 2



    Вы не можете начинать темы
    Вы не можете отвечать на сообщения
    Вы не можете редактировать свои сообщения
    Вы не можете удалять свои сообщения
    Вы не можете голосовать в опросах
    Вы не можете прикреплять файлы к сообщениям
    Вы не можете скачивать файлы