BitTorrentTracker PerecTracker.org
BitTorrentTracker PerecTracker.org
    
Регистрация  ·  Вход
 
 · 
Забыли пароль?

  • Блудливая Калифорния / Californication / Сезон 3: серий 1-12 из 12 (Том Капинос / Tom Kapinos) [2009 г., комедия, драма, WEB-DLRip] (NovaFilm + Первый канал + Kvadrat Malevicha)

    Ответить на тему
     
    Автор Сообщение

    Skillters

    Создавать темы 14-Апр-2015 13:45

           

    [Цитировать]

    Блудливая Калифорния / CalifornicationПОЛНЫЙ ТРЕТИЙ СЕЗОН!-Год выпуска: 2009
    Страна: США
    Жанр: комедия, драма
    Продолжительность: 12х ~00:21:00
    Перевод: Профессиональный Двухголосый NovaFilm + Первый канал + Kvadrat Malevicha
    Субтитры: английские(внешние)
    -Режиссёр: Том Капинос / Tom Kapinos-В ролях:
    Дэвид Духовны, Наташа МакЭлхоун, Мадлен Мартин, Эван Хэндлер, Памела Адлон, Мадлен Зима, Каллум Кейт Ренни, Рэйчел Майнер, Карла Галло, Ева Амурри-Описание:
    Талантливый и некогда известный писатель Хэнк [цензура] переживает творческий кризис. Отсутствие вдохновения он с лихвой компенсирует алкоголем, наркотиками и красивыми женщинами. Подкупающая прямота, чувство юмора и яркая харизма привлекают к нему сердца калифорнийских красавиц. Но его сердце занято — он любящий отец своей 13-летней дочери, и всё ещё влюблён в её маму — свою бывшую подружку…
    - -Качество: WEB-DLRip
    Формат: AVI
    Видео кодек: XviD
    Аудио кодек: AC3
    Видео: 720x400 (1.80:1), 23.976 fps, XviD MPEG-4 ~1998 kbps avg, 0.29 bit/pixel
    Аудио Rus: 48 kHz, AC3 Dolby Digital, 2/0 (L,R) ch, ~192 kbps(Двухголосый "NovaFilm")
    Аудио Rus: 48 kHz, AC3 Dolby Digital, 2/0 (L,R) ch, ~192 kbps(Многоголосый "Первый канал")
    Аудио Rus: 48 kHz, AC3 Dolby Digital, 2/0 (L,R) ch, ~192 kbps(Одноголосый "Kvadrat Malevicha")
    Аудио Eng: 48 kHz, AC3 Dolby Digital, 2/0 (L,R) ch, ~192 kbps(Original)

    MI

    General
    Complete name : H:\Фтп 3\Сериалы\Калифорнийский Блудник(Californication)\Californication Season 3\Californication.s03e01.rus.eng.avi
    Format : AVI
    Format/Info : Audio Video Interleave
    File size : 575 MiB
    Duration : 28mn 47s
    Overall bit rate : 2 792 Kbps
    Writing application : VirtualDubMod 1.5.10.2 (build 2540/release)
    Writing library : VirtualDubMod build 2540/release
    Video
    ID : 0
    Format : MPEG-4 Visual
    Format profile : Advanced Simple@L5
    Format settings, BVOP : Yes
    Format settings, QPel : No
    Format settings, GMC : No warppoints
    Format settings, Matrix : Default (MPEG)
    Codec ID : XVID
    Codec ID/Hint : XviD
    Duration : 28mn 47s
    Bit rate : 2 000 Kbps
    Width : 720 pixels
    Height : 400 pixels
    Display aspect ratio : 16:9
    Frame rate : 23.976 fps
    Color space : YUV
    Chroma subsampling : 4:2:0
    Bit depth : 8 bits
    Scan type : Progressive
    Bits/(Pixel*Frame) : 0.290
    Stream size : 412 MiB (72%)
    Writing library : XviD 1.2.1 (UTC 2008-12-04)
    Audio #1
    ID : 1
    Format : AC-3
    Format/Info : Audio Coding 3
    Mode extension : CM (complete main)
    Codec ID : 2000
    Duration : 28mn 47s
    Bit rate mode : Constant
    Bit rate : 192 Kbps
    Channel(s) : 2 channels
    Channel positions : Front: L R
    Sampling rate : 48.0 KHz
    Bit depth : 16 bits
    Stream size : 39.5 MiB (7%)
    Alignment : Split accross interleaves
    Interleave, duration : 42 ms (1.00 video frame)
    Interleave, preload duration : 500 ms
    Audio #2
    ID : 2
    Format : AC-3
    Format/Info : Audio Coding 3
    Mode extension : CM (complete main)
    Codec ID : 2000
    Duration : 28mn 47s
    Bit rate mode : Constant
    Bit rate : 192 Kbps
    Channel(s) : 2 channels
    Channel positions : Front: L R
    Sampling rate : 48.0 KHz
    Bit depth : 16 bits
    Stream size : 39.5 MiB (7%)
    Alignment : Split accross interleaves
    Interleave, duration : 42 ms (1.00 video frame)
    Interleave, preload duration : 500 ms
    Audio #3
    ID : 3
    Format : AC-3
    Format/Info : Audio Coding 3
    Mode extension : CM (complete main)
    Codec ID : 2000
    Duration : 28mn 47s
    Bit rate mode : Constant
    Bit rate : 192 Kbps
    Channel(s) : 2 channels
    Channel positions : Front: L R
    Sampling rate : 48.0 KHz
    Bit depth : 16 bits
    Stream size : 39.5 MiB (7%)
    Alignment : Split accross interleaves
    Interleave, duration : 42 ms (1.00 video frame)
    Interleave, preload duration : 500 ms
    Audio #4
    ID : 4
    Format : AC-3
    Format/Info : Audio Coding 3
    Mode extension : CM (complete main)
    Codec ID : 2000
    Duration : 28mn 47s
    Bit rate mode : Constant
    Bit rate : 192 Kbps
    Channel(s) : 2 channels
    Channel positions : Front: L R
    Sampling rate : 48.0 KHz
    Bit depth : 16 bits
    Stream size : 39.5 MiB (7%)
    Alignment : Split accross interleaves
    Interleave, duration : 42 ms (1.00 video frame)
    Interleave, preload duration : 500 ms

    Скриншоты

    Скачать .torrent

    Скачать торрент-файл бесплатно и на максимальной скорости!

    Как скачивать? · Что такое торрент? · Рейтинг и ограничения

    !ВНИМАНИЕ!
    Сайт не распространяет и не хранит электронные версии произведений, а занимается лишь лишь предоставлением доступа к создаваемому пользователями каталогу ссылок на торрент-файлы, которые содержат только списки хеш-сумм, убедительная просьба с жалобами обращаться напрямую к пользователю. Файлы для обмена на трекере предоставлены пользователями сайта, и администрация не несёт ответственности за их содержание. Просьба не заливать файлы, защищенные авторскими правами, а также файлы нелегального содержания!


    _________________
    [Профиль] [ЛС]
    Показать сообщения:    
    Ответить на тему

    Текущее время: Сегодня, в 20:53

    Часовой пояс: GMT + 2



    Вы не можете начинать темы
    Вы не можете отвечать на сообщения
    Вы не можете редактировать свои сообщения
    Вы не можете удалять свои сообщения
    Вы не можете голосовать в опросах
    Вы не можете прикреплять файлы к сообщениям
    Вы не можете скачивать файлы