BitTorrentTracker PerecTracker.org
BitTorrentTracker PerecTracker.org
    
Регистрация  ·  Вход
 
 · 
Забыли пароль?

  • [ATV3] Сын Божий / Son of God (Кристофер Спенсер / Christopher Spencer ) [2014, США, Драма, BDRip, HD (1080p)] MVO + Original + sub (rus, eng)

    Ответить на тему
     
    Автор Сообщение

    rechyn

    Создавать темы 14-Апр-2015 06:24

           

    [Цитировать]

    Сын Божий / Son of God
    «Their Empire. His Kingdom»
    6.448 / 10 5.50 / 10
    -Год выпуска: 2014
    Страна: США
    Жанр: Драма
    Продолжительность: 02:18:13
    Перевод: Многоголосый закадровый (iTunes Russia)
    Оригинальная аудиодорожка: Есть
    Cубтитры: Русские, Английские
    Режиссёр: Кристофер Спенсер
    Сценарий: Ричард Бедсер, Кристофер Спенсер, Колин Свэш
    Продюсер: Рома Дауни, Марк Барнетт, Ричард Бедсер
    Оператор: Роб Голди
    Композитор: Лорн Бэлф, Ханс Циммер
    Художник: Алан Спэлдинг, Саид Эль Кунти, Хауке Рихтер
    Монтаж: Роберт Холл
    В ролях: Диого Моргадо, Грег Хикс, Адриан Шиллер, Себастьян Кнапп, Джо Коэн, Саймон Кунц, Пол Марк Дэвис, Мэттью Гравель, Эмбер Роуз Рева, Рома Дауни
    Бюджет: $22 000 000
    Сборы в США: $59 700 064
    Сборы в мире: + $8 100 000 = $67 800 064
    Мировая премьера: 28 февраля 2014
    Описание: История Иисуса Христа от Рождения, до Его учения, Распятия и Вознесения.-Качество исходника: NNMClub, Сын Божий / Son of God (2014) BDRemux [H.264/1080p]
    Качество: BDRip
    Тип: HD (1080p)
    Контейнер: M4V
    Видео: H.264, 1920x800, 2.40:1, 8 000 Kbps, 23.976 fps
    Аудио 1: Русский/Многоголосый закадровый (iTunes Russia), AAC / 2.0 / 156 Kbps / 48.0 KHz
    Аудио 2: Английский/Оригинальная дорожка , AAC / 2.0 / 157 Kbps / 48.0 KHz
    Аудио 3: Русский/Многоголосый закадровый (iTunes Russia), AC-3 / 5.1 / 384 Kbps / 48.0 KHz
    Аудио 4: Английский/Оригинальная дорожка , AC-3 / 5.1 / 640 Kbps / 48.0 KHz
    Субтитры 1: Русские полные
    Субтитры 2: Английские полные
    Субтитры 3: Английские SDH
    -

    iTunes Meta Tags

    Sort Name: Son of God
    XID: Apple:vendor_id:2014-799715
    contentID: 805914417
    Copyright: © 2014 Twentieth Century Fox Film Corporation. All rights reserved.
    Screenwriters: Ричард Бедсер, Кристофер Спенсер, Колин Свэш
    Producers: Рома Дауни, Марк Барнетт, Ричард Бедсер
    Director: Кристофер Спенсер
    Cast: Диого Моргадо, Грег Хикс, Адриан Шиллер, Себастьян Кнапп, Джо Коэн, Саймон Кунц, Пол Марк Дэвис, Мэттью Гравель, Эмбер Роуз Рева, Рома Дауни
    Studio: 20th Century Fox
    Rating: 10
    Long Description: История Иисуса Христа от Рождения, до Его учения, Распятия и Вознесения.
    Description: История Иисуса Христа от Рождения, до Его учения, Распятия и Вознесения.
    Release Date: 2014-02-28T08:00:00Z
    Genre: Drama
    Artist: Christopher Spencer
    Name: Son of God

    MediaInfo

    General
    Complete name                            : /Users/imac/HandBrake/Son of God (1080p HD).m4v
    Format                                   : MPEG-4
    Codec ID                                 : M4V
    File size                                : 9.02 GiB
    Duration                                 : 2h 18mn
    Overall bit rate mode                    : Variable
    Overall bit rate                         : 9 343 Kbps
    Movie name                               : Son of God
    Performer                                : Christopher Spencer
    Genre                                    : Drama
    Recorded date                            : UTC 2014-02-28 08:00:00
    Encoded date                             : UTC 2015-04-13 22:36:59
    Tagged date                              : UTC 2015-04-13 22:40:29
    Copyright                                : © 2014 Twentieth Century Fox Film Corporation. All rights reserved.
    Cover                                    : Yes
    sonm                                     : Son of God
    desc                                     : История Иисуса Христа от Рождения, до Его учения, Распятия и Вознесения.
    ldes                                     : История Иисуса Христа от Рождения, до Его учения, Распятия и Вознесения.
    hdvd                                     : 2
    stik                                     : 9
    rtng                                     : 0
    cnID                                     : 805914417
    xid                                      : Apple:vendor_id:2014-799715
    iTunEXTC                                 : mpaa|PG-13|300|
    iTunMOVI                                 : <?xml version=\"1.0\" encoding=\"UTF-8\"?> / <!DOCTYPE plist PUBLIC \"-//Apple//DTD PLIST 1.0//EN\" \"http://anonym.to/?http://www.apple.com/DTDs/PropertyList-1.0.dtd\"> / <plist version=\"1.0\"> / <dict> /  <key>cast</key> /  <array> /   <dict> /    <key>name</key> /    <string>Диого Моргадо</string> /   </dict> /   <dict> /    <key>name</key> /    <string>Грег Хикс</string> /   </dict> /   <dict> /    <key>name</key> /    <string>Адриан Шиллер</string> /   </dict> /   <dict> /    <key>name</key> /    <string>Себастьян Кнапп</string> /   </dict> /   <dict> /    <key>name</key> /    <string>Джо Коэн</string> /   </dict> /   <dict> /    <key>name</key> /    <string>Саймон Кунц</string> /   </dict> /   <dict> /    <key>name</key> /    <string>Пол Марк Дэвис</string> /   </dict> /   <dict> /    <key>name</key> /    <string>Мэттью Гравель</string> /   </dict> /   <dict> /    <key>name</key> /    <string>Эмбер Роуз Рева</string> /   </dict> /   <dict> /    <key>name</key> /    <string>Рома Дауни</string> /   </dict> /  </array> /  <key>directors</key> /  <array> /   <dict> /    <key>name</key> /    <string>Кристофер Спенсер</string> /   </dict> /  </array> /  <key>producers</key> /  <array> /   <dict> /    <key>name</key> /    <string>Рома Дауни</string> /   </dict> /   <dict> /    <key>name</key> /    <string>Марк Барнетт</string> /   </dict> /   <dict> /    <key>name</key> /    <string>Ричард Бедсер</string> /   </dict> /  </array> /  <key>screenwriters</key> /  <array> /   <dict> /    <key>name</key> /    <string>Ричард Бедсер</string> /   </dict> /   <dict> /    <key>name</key> /    <string>Кристофер Спенсер</string> /   </dict> /   <dict> /    <key>name</key> /    <string>Колин Свэш</string> /   </dict> /  </array> /  <key>studio</key> /  <string>20th Century Fox</string> / </dict> / </plist>
    Video #1
    ID                                       : 1
    Format                                   : AVC
    Format/Info                              : Advanced Video Codec
    Format profile                           : High@L4.0
    Format settings, CABAC                   : Yes
    Format settings, ReFrames                : 4 frames
    Codec ID                                 : avc1
    Codec ID/Info                            : Advanced Video Coding
    Duration                                 : 2h 18mn
    Bit rate mode                            : Variable
    Bit rate                                 : 8 000 Kbps
    Width                                    : 1 920 pixels
    Height                                   : 800 pixels
    Display aspect ratio                     : 2.40:1
    Frame rate mode                          : Variable
    Frame rate                               : 23.976 fps
    Minimum frame rate                       : 23.810 fps
    Maximum frame rate                       : 24.272 fps
    Color space                              : YUV
    Chroma subsampling                       : 4:2:0
    Bit depth                                : 8 bits
    Scan type                                : Progressive
    Bits/(Pixel*Frame)                       : 0.217
    Stream size                              : 7.72 GiB (86%)
    Writing library                          : x264 core 142 r2479 dd79a61
    Encoding settings                        : cabac=1 / ref=4 / deblock=1:0:0 / analyse=0x3:0x133 / me=umh / subme=10 / psy=1 / psy_rd=1.00:0.00 / mixed_ref=1 / me_range=32 / chroma_me=1 / trellis=2 / 8x8dct=1 / cqm=0 / deadzone=21,11 / fast_pskip=1 / chroma_qp_offset=-2 / threads=12 / lookahead_threads=1 / sliced_threads=0 / nr=0 / decimate=1 / interlaced=0 / bluray_compat=0 / constrained_intra=0 / bframes=4 / b_pyramid=2 / b_adapt=2 / b_bias=0 / direct=3 / weightb=1 / open_gop=0 / weightp=2 / keyint=240 / keyint_min=24 / scenecut=40 / intra_refresh=0 / rc_lookahead=40 / rc=2pass / mbtree=0 / bitrate=8000 / ratetol=1.0 / qcomp=0.60 / qpmin=0 / qpmax=69 / qpstep=4 / cplxblur=20.0 / qblur=0.5 / vbv_maxrate=25000 / vbv_bufsize=25000 / nal_hrd=none / filler=0 / ip_ratio=1.40 / pb_ratio=1.30 / aq=1:1.00
    Language                                 : English
    Encoded date                             : UTC 2015-04-13 22:36:59
    Tagged date                              : UTC 2015-04-13 22:38:45
    Color primaries                          : BT.709-5, BT.1361, IEC 61966-2-4, SMPTE RP177
    Transfer characteristics                 : BT.709-5, BT.1361
    Matrix coefficients                      : BT.709-5, BT.1361, IEC 61966-2-4 709, SMPTE RP177
    Video #2
    ID                                       : 10
    Format                                   : JPEG
    Codec ID                                 : jpeg
    Duration                                 : 2h 18mn
    Bit rate mode                            : Variable
    Bit rate                                 : 1 282 bps
    Width                                    : 640 pixels
    Height                                   : 266 pixels
    Display aspect ratio                     : 2.40:1
    Frame rate mode                          : Variable
    Frame rate                               : 0.004 fps
    Minimum frame rate                       : 0.002 fps
    Maximum frame rate                       : 0.013 fps
    Color space                              : YUV
    Chroma subsampling                       : 4:2:0
    Bit depth                                : 8 bits
    Compression mode                         : Lossy
    Bits/(Pixel*Frame)                       : 1.883
    Stream size                              : 1.38 MiB (0%)
    Language                                 : English
    Encoded date                             : UTC 2015-04-13 22:39:00
    Tagged date                              : UTC 2015-04-13 22:39:01
    Audio #1
    ID                                       : 2
    Format                                   : AAC
    Format/Info                              : Advanced Audio Codec
    Format profile                           : LC
    Codec ID                                 : 40
    Duration                                 : 2h 18mn
    Bit rate mode                            : Variable
    Bit rate                                 : 156 Kbps
    Maximum bit rate                         : 226 Kbps
    Channel(s)                               : 2 channels
    Channel positions                        : Front: L R
    Sampling rate                            : 48.0 KHz
    Compression mode                         : Lossy
    Stream size                              : 154 MiB (2%)
    Language                                 : Russian
    Encoded date                             : UTC 2015-04-13 22:36:59
    Tagged date                              : UTC 2015-04-13 22:37:18
    Audio #2
    ID                                       : 3
    Format                                   : AAC
    Format/Info                              : Advanced Audio Codec
    Format profile                           : LC
    Codec ID                                 : 40
    Duration                                 : 2h 18mn
    Bit rate mode                            : Variable
    Bit rate                                 : 157 Kbps
    Maximum bit rate                         : 232 Kbps
    Channel(s)                               : 2 channels
    Channel positions                        : Front: L R
    Sampling rate                            : 48.0 KHz
    Compression mode                         : Lossy
    Stream size                              : 156 MiB (2%)
    Language                                 : English
    Encoded date                             : UTC 2015-04-13 22:36:59
    Tagged date                              : UTC 2015-04-13 22:38:22
    Audio #3
    ID                                       : 4
    Format                                   : AC-3
    Format/Info                              : Audio Coding 3
    Mode extension                           : CM (complete main)
    Format settings, Endianness              : Big
    Codec ID                                 : ac-3
    Duration                                 : 2h 18mn
    Bit rate mode                            : Constant
    Bit rate                                 : 384 Kbps
    Channel(s)                               : 6 channels
    Channel positions                        : Front: L C R, Side: L R, LFE
    Sampling rate                            : 48.0 KHz
    Bit depth                                : 16 bits
    Compression mode                         : Lossy
    Stream size                              : 380 MiB (4%)
    Language                                 : Russian
    Encoded date                             : UTC 2015-04-13 22:36:59
    Tagged date                              : UTC 2015-04-13 22:37:12
    Audio #4
    ID                                       : 5
    Format                                   : AC-3
    Format/Info                              : Audio Coding 3
    Mode extension                           : CM (complete main)
    Format settings, Endianness              : Big
    Codec ID                                 : ac-3
    Duration                                 : 2h 18mn
    Bit rate mode                            : Constant
    Bit rate                                 : 640 Kbps
    Channel(s)                               : 6 channels
    Channel positions                        : Front: L C R, Side: L R, LFE
    Sampling rate                            : 48.0 KHz
    Bit depth                                : 16 bits
    Compression mode                         : Lossy
    Stream size                              : 633 MiB (7%)
    Language                                 : English
    Encoded date                             : UTC 2015-04-13 22:36:59
    Tagged date                              : UTC 2015-04-13 22:37:14
    Text #1
    ID                                       : 6
    Format                                   : Timed text
    Muxing mode                              : sbtl
    Codec ID                                 : tx3g
    Duration                                 : 2h 17mn
    Bit rate mode                            : Variable
    Bit rate                                 : 50 bps
    Stream size                              : 50.2 KiB (0%)
    Language                                 : Russian
    Encoded date                             : UTC 2015-04-13 22:37:00
    Tagged date                              : UTC 2015-04-13 22:37:00
    Text #2
    ID                                       : 7
    Format                                   : Timed text
    Muxing mode                              : sbtl
    Codec ID                                 : tx3g
    Duration                                 : 2h 18mn
    Bit rate mode                            : Variable
    Bit rate                                 : 45 bps
    Stream size                              : 45.3 KiB (0%)
    Language                                 : English
    Encoded date                             : UTC 2015-04-13 22:37:00
    Tagged date                              : UTC 2015-04-13 22:37:00
    Text #3
    ID                                       : 8
    Format                                   : Timed text
    Muxing mode                              : sbtl
    Codec ID                                 : tx3g
    Duration                                 : 2h 18mn
    Bit rate mode                            : Variable
    Bit rate                                 : 57 bps
    Stream size                              : 57.8 KiB (0%)
    Language                                 : English
    Encoded date                             : UTC 2015-04-13 22:37:00
    Tagged date                              : UTC 2015-04-13 22:37:00
    Text #4
    ID                                       : 9
    Format                                   : Apple text
    Codec ID                                 : text
    Duration                                 : 2h 18mn
    Bit rate mode                            : Variable
    Bit rate                                 : 1 bps
    Stream size                              : 855 Bytes (0%)
    Language                                 : English
    Encoded date                             : UTC 2015-04-13 22:38:45
    Tagged date                              : UTC 2015-04-13 22:38:45
    Menu
    00:00:00.000                             : Chapter 1
    00:02:42.496                             : Chapter 2
    00:04:37.569                             : Chapter 3
    00:07:39.959                             : Chapter 4
    00:12:54.273                             : Chapter 5
    00:17:53.281                             : Chapter 6
    00:21:30.998                             : Chapter 7
    00:22:48.158                             : Chapter 8
    00:25:31.697                             : Chapter 9
    00:27:20.472                             : Chapter 10
    00:31:43.193                             : Chapter 11
    00:36:24.224                             : Chapter 12
    00:39:07.053                             : Chapter 13
    00:43:51.546                             : Chapter 14
    00:47:10.786                             : Chapter 15
    00:50:26.106                             : Chapter 16
    00:54:30.184                             : Chapter 17
    00:56:23.880                             : Chapter 18
    00:59:18.513                             : Chapter 19
    01:02:31.373                             : Chapter 20
    01:08:59.427                             : Chapter 21
    01:13:03.879                             : Chapter 22
    01:16:17.281                             : Chapter 23
    01:21:48.987                             : Chapter 24
    01:24:14.007                             : Chapter 25
    01:28:03.361                             : Chapter 26
    01:29:59.477                             : Chapter 27
    01:35:30.642                             : Chapter 28
    01:39:38.431                             : Chapter 29
    01:44:03.279                             : Chapter 30
    01:48:44.893                             : Chapter 31
    01:54:08.967                             : Chapter 32
    02:02:08.488                             : Chapter 33
    02:05:21.848                             : Chapter 34
    02:09:47.238                             : Chapter 35
    02:14:19.343                             : Chapter 36

    x264 лог

    x264 [info]: frame I:1633  Avg QP:18.00  size:184298
    x264 [info]: frame P:57445 Avg QP:20.51  size: 69598
    x264 [info]: frame B:139763 Avg QP:22.12  size: 28552
    x264 [info]: consecutive B-frames:  4.4%  6.0% 20.4% 33.0% 36.2%
    x264 [info]: mb I  I16..4:  8.1% 85.3%  6.6%
    x264 [info]: mb P  I16..4:  3.3% 19.8%  1.1%  P16..4: 41.5% 17.9%  9.9%  0.1%  0.0%    skip: 6.4%
    x264 [info]: mb B  I16..4:  0.5%  1.7%  0.1%  B16..8: 46.0%  9.4%  2.1%  direct: 8.5%  skip:31.6%  L0:43.0% L1:49.5% BI: 7.4%
    x264 [info]: 8x8 transform intra:80.9% inter:70.2%
    x264 [info]: direct mvs  spatial:97.6% temporal:2.4%
    x264 [info]: coded y,uvDC,uvAC intra: 87.9% 76.9% 45.8% inter: 36.1% 27.9% 2.8%
    x264 [info]: i16 v,h,dc,p: 15% 10% 33% 42%
    x264 [info]: i8 v,h,dc,ddl,ddr,vr,hd,vl,hu:  8%  6%  8% 11% 15% 14% 13% 12% 12%
    x264 [info]: i4 v,h,dc,ddl,ddr,vr,hd,vl,hu: 10%  6%  5%  9% 16% 16% 14% 12% 12%
    x264 [info]: i8c dc,h,v,p: 47% 21% 18% 13%
    x264 [info]: Weighted P-Frames: Y:6.3% UV:2.8%
    x264 [info]: ref P L0: 50.7% 13.4% 23.3%  9.6%  2.7%  0.1%
    x264 [info]: ref B L0: 83.0% 13.4%  3.6%
    x264 [info]: ref B L1: 92.0%  8.0%
    x264 [info]: kb/s:7996.29

    Скриншоты

    -

    Релиз подготовлен для просмотра на Apple TV, iPad, iPhone, iPod Touch.
    Для просмотра данного релиза на компьютере с ОС Windows рекомендуется использовать VLC media player
    Скачать .torrent

    Скачать торрент-файл бесплатно и на максимальной скорости!

    Как скачивать? · Что такое торрент? · Рейтинг и ограничения

    !ВНИМАНИЕ!
    Сайт не распространяет и не хранит электронные версии произведений, а занимается лишь лишь предоставлением доступа к создаваемому пользователями каталогу ссылок на торрент-файлы, которые содержат только списки хеш-сумм, убедительная просьба с жалобами обращаться напрямую к пользователю. Файлы для обмена на трекере предоставлены пользователями сайта, и администрация не несёт ответственности за их содержание. Просьба не заливать файлы, защищенные авторскими правами, а также файлы нелегального содержания!


    _________________
    [Профиль] [ЛС]
    Показать сообщения:    
    Ответить на тему

    Текущее время: Сегодня, в 02:32

    Часовой пояс: GMT + 2



    Вы не можете начинать темы
    Вы не можете отвечать на сообщения
    Вы не можете редактировать свои сообщения
    Вы не можете удалять свои сообщения
    Вы не можете голосовать в опросах
    Вы не можете прикреплять файлы к сообщениям
    Вы не можете скачивать файлы