BitTorrentTracker PerecTracker.org
BitTorrentTracker PerecTracker.org
    
Регистрация  ·  Вход
 
 · 
Забыли пароль?

  • Мёртвые земли / The Dead Lands (Тоа Фрейзер / Toa Fraser) [2014, Новая Зеландия, Боевик, HDRip] Sub Rus

    Ответить на тему
     
    Автор Сообщение

    Light

    Создавать темы 13-Апр-2015 22:00

           

    [Цитировать]

    Мёртвые земли / The Dead Lands
    Страна: Новая Зеландия
    Жанр: Боевик
    Год выпуска: 2014
    Продолжительность: 01:47:32
    Перевод: Субтитры Хихикающий доктор
    Cубтитры: русские
    Режиссер: Тоа Фрейзер / Toa Fraser
    В ролях: Джеймс Роллестон, Лоуренс Макор, Те Кохе Тухака, Ксавьер Хоран, Раукура Туреи, Джордж Хинар, Рина Оуэн, Пена Хема Тейлор, Келвин Тутео Jamus Webster
    Описание: Действие происходит в доколониальной Новой Зеландии. Молодой сын вождя племени стремится отомстить убийцам своей семьи, изучая древние боевые искусства племени Маори при помощи легендарного воина.
    Доп. информация:

    Сэмпл: http://sendfile.su/1105213
    Качество видео: HDRip
    Формат видео: AVI
    Видео: XviD, 757 kb/s, 720x304, 23,976 кадра/сек, 2.35:1
    Аудио: MP3, 2 ch, 128 Кбит/с, 44,1 КГц
    Формат субтитров: hardsub (неотключаемые)

    MediaInfo

    Общее
    Формат : AVI
    Формат/Информация : Audio Video Interleave
    Размер файла : 691 Мбайт
    Продолжительность : 1 ч. 47 м.
    Общий поток : 898 Кбит/сек
    Программа кодирования : MEncoder SVN-r33883(20110719-gcc4.5.2)
    Библиотека кодирования : MPlayer
    Видео
    Идентификатор : 0
    Формат : MPEG-4 Visual
    Профиль формата : Advanced Simple@L5
    Параметр BVOP формата : 2
    Параметр QPel формата : Нет
    Параметр GMC формата : Без точки перехода
    Параметр матрицы формата : Default (H.263)
    Идентификатор кодека : XVID
    Идентификатор кодека/Подсказка : XviD
    Продолжительность : 1 ч. 47 м.
    Битрейт : 758 Кбит/сек
    Ширина : 720 пикселей
    Высота : 304 пикселя
    Соотношение сторон : 2,35:1
    Соотношение сторон в оригинале : 2,35:1
    Частота кадров : 23,976 кадра/сек
    Цветовое пространство : YUV
    Субдискретизация насыщенности : 4:2:0
    Битовая глубина : 8 бит
    Тип развёртки : Прогрессивная
    Метод сжатия : С потерями
    Бит/(Пиксели*Кадры) : 0.144
    Размер потока : 583 Мбайт (84%)
    Библиотека кодирования : XviD 1.2.1 (UTC 2008-12-04)
    Аудио
    Идентификатор : 1
    Формат : MPEG Audio
    Версия формата : Version 1
    Профиль формата : Layer 3
    Режим : Joint stereo
    Идентификатор кодека : 55
    Идентификатор кодека/Подсказка : MP3
    Продолжительность : 1 ч. 47 м.
    Вид битрейта : Постоянный
    Битрейт : 128 Кбит/сек
    Каналы : 2 канала
    Частота : 44,1 КГц
    Метод сжатия : С потерями
    Задержка видео : 42 мс.
    Размер потока : 98,5 Мбайт (14%)
    Выравнивание : Соединение по промежуткам
    Продолжительность промежутка : 26 мс. (0,63 видеокадр)
    Время предзагрузки промежутка : 522 мс.

    Скриншот c названием фильма

    Скриншоты



    Скачать .torrent

    Скачать торрент-файл бесплатно и на максимальной скорости!

    Как скачивать? · Что такое торрент? · Рейтинг и ограничения

    !ВНИМАНИЕ!
    Сайт не распространяет и не хранит электронные версии произведений, а занимается лишь лишь предоставлением доступа к создаваемому пользователями каталогу ссылок на торрент-файлы, которые содержат только списки хеш-сумм, убедительная просьба с жалобами обращаться напрямую к пользователю. Файлы для обмена на трекере предоставлены пользователями сайта, и администрация не несёт ответственности за их содержание. Просьба не заливать файлы, защищенные авторскими правами, а также файлы нелегального содержания!


    _________________
    [Профиль] [ЛС]
    Показать сообщения:    
    Ответить на тему

    Текущее время: Сегодня, в 23:20

    Часовой пояс: GMT + 2



    Вы не можете начинать темы
    Вы не можете отвечать на сообщения
    Вы не можете редактировать свои сообщения
    Вы не можете удалять свои сообщения
    Вы не можете голосовать в опросах
    Вы не можете прикреплять файлы к сообщениям
    Вы не можете скачивать файлы