BitTorrentTracker PerecTracker.org
BitTorrentTracker PerecTracker.org
    
Регистрация  ·  Вход
 
 · 
Забыли пароль?

  • Ветер (Александр Алов, Владимир Наумов) [1958 г., драма, военный, SATRip]

    Ответить на тему
     
    Автор Сообщение

    Light

    Создавать темы 13-Апр-2015 05:12

           

    [Цитировать]

    ВетерГод выпуска: 1958.
    Жанр: драма, военный.
    Продолжительность: 01:33:25.
    Режиссеры: Александр Алов, Владимир Наумов.
    В ролях:
    Эдуард Бредун, Тамара Логинова, Эльза Леждей, Александр Демьяненко, Алексей Крыченков, Иван Александров, Анатолий Ромашин, Н. Солошенко, Виктория Радунская, Юрий Яковлев.
    Описание:
    Осень 1918 года. На Первый Всероссийский съезд молодежи делегатом от паровозного депо маленького южного городка, занятого белыми, отправляется по рекомендации подпольного ревкома Федор (Эдуард Бредун), с ним гимназист Митя (Александр Демьяненко) и работница Настя (Тамара Логинова). По пути к ним присоединяются беспризорник Окурок и девушка Мари (Эльза Леждей). Много испытаний и страшных потерь пришлось пережить этим ребятам по пути в Москву. Убит гимназист Митя, расстреляна вместе с группой большевиков Мари, сражена пулей из бандитского обреза Настя. На носилках вносят в зал заседания первого Всеросийского съезда комсомола Фёдора. Он говорит от имени оставшихся за линией фронта, от имени своих погибших товарищей...
    Доп. информация:
    Страна: СССР .
    Киностудия: Мосфильм.
    Премьера: 16 марта 1959 года.
    Авторы сценария: Александр Алов, Владимир Наумов.
    Оператор: Федор Добронравов.
    Композитор: Николай Каретников.
    Художник: Евгений Свидетелев.

    Релиз
    Рип с этой раздачи.
    Большое спасибо Cheef mate за предоставленый материал для рипа!!!

    Качество: SATRip
    Формат: AVI
    Видео: 688x528 (1.30:1), 25 fps, XviD build 73 ~2055 kbps avg, 0.23 bit/pixel
    Аудио: 48 kHz, AC3 Dolby Digital, 2/0 (L,R) ch, ~192 kbps

    Отчет MI

    General
    Complete name : Veter.1958.XviD.SATRip.fenixclub_1.47.avi
    Format : AVI
    Format/Info : Audio Video Interleave
    File size : 1.47 GiB
    Duration : 1h 33mn
    Overall bit rate : 2 257 Kbps
    Writing application : VirtualDubMod 1.5.10.3 | www.virtualdub-fr.org || (build 2550/release)
    Writing library : VirtualDubMod build 2550/release
    Video
    ID : 0
    Format : MPEG-4 Visual
    Format profile : Advanced Simple@L5
    Format settings, BVOP : 1
    Format settings, QPel : No
    Format settings, GMC : No warppoints
    Format settings, Matrix : Custom
    Codec ID : XVID
    Codec ID/Hint : XviD
    Duration : 1h 33mn
    Bit rate : 2 056 Kbps
    Width : 688 pixels
    Height : 528 pixels
    Display aspect ratio : 4:3
    Frame rate : 25.000 fps
    Color space : YUV
    Chroma subsampling : 4:2:0
    Bit depth : 8 bits
    Scan type : Progressive
    Compression mode : Lossy
    Bits/(Pixel*Frame) : 0.226
    Stream size : 1.34 GiB (91%)
    Writing library : XviD 73
    Audio
    ID : 1
    Format : AC-3
    Format/Info : Audio Coding 3
    Mode extension : CM (complete main)
    Format settings, Endianness : Big
    Codec ID : 2000
    Duration : 1h 33mn
    Bit rate mode : Constant
    Bit rate : 192 Kbps
    Channel(s) : 2 channels
    Channel positions : Front: L R
    Sampling rate : 48.0 KHz
    Bit depth : 16 bits
    Compression mode : Lossy
    Stream size : 128 MiB (9%)
    Alignment : Split accross interleaves
    Interleave, duration : 40 ms (1.00 video frame)
    Interleave, preload duratio : 500 ms.
    Скриншоты

    Альтернативный хост

    Скачать .torrent

    Скачать торрент-файл бесплатно и на максимальной скорости!

    Как скачивать? · Что такое торрент? · Рейтинг и ограничения

    !ВНИМАНИЕ!
    Сайт не распространяет и не хранит электронные версии произведений, а занимается лишь лишь предоставлением доступа к создаваемому пользователями каталогу ссылок на торрент-файлы, которые содержат только списки хеш-сумм, убедительная просьба с жалобами обращаться напрямую к пользователю. Файлы для обмена на трекере предоставлены пользователями сайта, и администрация не несёт ответственности за их содержание. Просьба не заливать файлы, защищенные авторскими правами, а также файлы нелегального содержания!


    _________________
    [Профиль] [ЛС]
    Показать сообщения:    
    Ответить на тему

    Текущее время: Сегодня, в 14:47

    Часовой пояс: GMT + 2



    Вы не можете начинать темы
    Вы не можете отвечать на сообщения
    Вы не можете редактировать свои сообщения
    Вы не можете удалять свои сообщения
    Вы не можете голосовать в опросах
    Вы не можете прикреплять файлы к сообщениям
    Вы не можете скачивать файлы