BitTorrentTracker PerecTracker.org
BitTorrentTracker PerecTracker.org
    
Регистрация  ·  Вход
 
 · 
Забыли пароль?

  • Красный агитатор Трофим Глушков (Валерий Рубинчик) [1969, Телефильм по мотивам рассказов Всеволода Иванова., DVDScreener]

    Ответить на тему
     
    Автор Сообщение

    Light

    Создавать темы 13-Апр-2015 01:00

           

    [Цитировать]

    Красный агитатор Трофим Глушков
    Жанр:Драма.
    Год выпуска: 1969
    Продолжительность: 00:36:42
    Режиссёр: Валерий Рубинчик
    В ролях: Виталий Базин, Ирина Азер, Вадим Ганшин, Евгений Шабан, Алексей Биричевский, Сергей Александров
    Описание: О подвиге одного из первых советских агитаторов-киномехаников Трофима Глушкова, убитого бандитами в годы Гражданской войны.
    Телефильм по мотивам рассказов Всеволода Иванова.
    Доп. информация: Производство: Беларусьфильм
    Премьера: 26 февраля 1970 (ТВ, Москва)
    Релиз:
    Семпл: https://www.sendspace.com/file/zv6j2u
    Качество видео: DVDScreener
    Формат видео: AVI
    Видео:720x544 (1.32:1),25 fps, DivX Codec 4.x,1999 kbps avg, 0.20 bit/pixel.
    Аудио:48 kHz, MPEG Layer 3,1 ch,96.00 kbps avg.

    MediaInfo

    Общее
    Полное имя : E:\Красный агитатор Трофим Глушков (1969).avi
    Формат : AVI
    Формат/Информация : Audio Video Interleave
    Размер файла : 553 Мбайт
    Продолжительность : 36 м.
    Общий поток : 2106 Кбит/сек
    Программа кодирования : Lavf53.19.0
    Библиотека кодирования : VirtualDub build 35491/release
    Видео
    Идентификатор : 0
    Формат : MPEG-4 Visual
    Профиль формата : Simple@L1
    Параметр BVOP формата : Нет
    Параметр QPel формата : Нет
    Параметр GMC формата : Без точки перехода
    Параметр матрицы формата : Default (H.263)
    Идентификатор кодека : DIVX
    Идентификатор кодека/Информация : Project Mayo
    Идентификатор кодека/Подсказка : DivX 4
    Продолжительность : 36 м.
    Битрейт : 2000 Кбит/сек
    Ширина : 720 пикселей
    Высота : 544 пикселя
    Соотношение сторон : 4:3
    Частота кадров : 25,000 кадров/сек
    Цветовое пространство : YUV
    Субдискретизация насыщенности : 4:2:0
    Битовая глубина : 8 бит
    Тип развёртки : Прогрессивная
    Метод сжатия : С потерями
    Бит/(Пиксели*Кадры) : 0.204
    Размер потока : 525 Мбайт (95%)
    Библиотека кодирования : Lavc53.33.0
    Аудио
    Идентификатор : 1
    Формат : MPEG Audio
    Версия формата : Version 1
    Профиль формата : Layer 3
    Идентификатор кодека : 55
    Идентификатор кодека/Подсказка : MP3
    Продолжительность : 36 м.
    Вид битрейта : Постоянный
    Битрейт : 96,0 Кбит/сек
    Каналы : 1 канал
    Частота : 48,0 КГц
    Метод сжатия : С потерями
    Задержка видео : 18 мс.
    Размер потока : 25,2 Мбайт (5%)
    Выравнивание : Разделение по промежуткам
    Продолжительность промежутка : 40 мс. (1,00 видеокадр)
    Время предзагрузки промежутка : 500 мс.

    Скриншоты

    Скачать .torrent

    Скачать торрент-файл бесплатно и на максимальной скорости!

    Как скачивать? · Что такое торрент? · Рейтинг и ограничения

    !ВНИМАНИЕ!
    Сайт не распространяет и не хранит электронные версии произведений, а занимается лишь лишь предоставлением доступа к создаваемому пользователями каталогу ссылок на торрент-файлы, которые содержат только списки хеш-сумм, убедительная просьба с жалобами обращаться напрямую к пользователю. Файлы для обмена на трекере предоставлены пользователями сайта, и администрация не несёт ответственности за их содержание. Просьба не заливать файлы, защищенные авторскими правами, а также файлы нелегального содержания!


    _________________
    [Профиль] [ЛС]
    Показать сообщения:    
    Ответить на тему

    Текущее время: Сегодня, в 20:13

    Часовой пояс: GMT + 2



    Вы не можете начинать темы
    Вы не можете отвечать на сообщения
    Вы не можете редактировать свои сообщения
    Вы не можете удалять свои сообщения
    Вы не можете голосовать в опросах
    Вы не можете прикреплять файлы к сообщениям
    Вы не можете скачивать файлы