BitTorrentTracker PerecTracker.org
BitTorrentTracker PerecTracker.org
    
Регистрация  ·  Вход
 
 · 
Забыли пароль?

  • Город 44 / Miasto 44 (Ян Комаса / Jan Komasa) [2014, Польша, драма, военный, BDRip-AVC] DVO (RAIM & NASTR) + Subs (Rus, Eng) + Original Pol

    Ответить на тему
     
    Автор Сообщение

    Light

    Создавать темы 12-Апр-2015 20:48

           

    [Цитировать]

    Город 44 / Miasto 44
    Страна: Польша
    Жанр: драма, военный
    Год выпуска: 2014
    Продолжительность: 2:04:46
    Перевод: Любительский (двухголосый закадровый) RAIM & NASTR
    Cубтитры: русские (GlobalTrolle), английские
    Оригинальная аудиодорожка: польский
    Режиссер: Ян Комаса / Jan Komasa
    В ролях: Юзеф Павловский, Зофиа Вихлач, Анна Прухняк, Энтони Круликовски, Мауриси Попьел, Filip Gurlacz, Михал Миколайчак, Каролина Станец, Жасмин Полак, Томаш Шухардт
    Описание: Действие фильма начинается перед самым началом варшавского восстания 1 августа 1944 года. Фильм рассказывает о группе близких друзей, которые приезжают в столицу в разгар повстанческой борьбы. Стефан работает на заводе Ведля, содержит мать и младшего брата, ежедневно испытывая унижения немцев. Мечтает о мгновении, когда сможет им за все отплатить и исполнить долг перед Родиной. Как только представляется случай — он вступает в ряды Армии Крайовой. Во время конспиративных встреч Стефан знакомится с Бедронкой, тонкой и впечатлительной девушкой. Молодые люди познают вкус первой юношеской любви. Но когда смерть грозит на каждом шагу, такая любовь не может быть счастливой…

    Сэмпл: http://sendfile.su/1106997
    Качество видео: BDRip-AVC [Город 44 / Miasto 44 (2014) Blu-ray Disc -BLUEBIRD]
    Формат видео: MKV
    Видео: AVC, 1152 x 482 (2,40:1), 2499 kbps, 24,000 fps, 0.188 bpp
    Аудио: AC3, 6ch, 48 kHz, 384 kbps, 16 bit
    Аудио 2: AC3, 6ch, 48 kHz, 384 kbps, 16 bit
    Формат субтитров: softsub (SRT)

    MediaInfo

    Уникальный идентификатор : 211460012151317001528652993194935573065 (0x9F15B789A8E512A1A1A0A37932C1DA49)
    Полное имя : F:\Films\City_44\Gorod_ 44.mkv
    Формат : Matroska
    Версия формата : Version 4 / Version 2
    Размер файла : 2,89 Гбайт
    Продолжительность : 2 ч. 6 м.
    Общий поток : 3269 Кбит/сек
    Дата кодирования : UTC 2015-04-12 04:24:51
    Программа кодирования : mkvmerge v7.7.0 ('Six Voices') 64bit built on Feb 28 2015 23:39:33
    Библиотека кодирования : libebml v1.3.1 + libmatroska v1.4.2
    _STATISTICS_WRITING_APP : mkvmerge v7.7.0 ('Six Voices') 64bit built on Feb 28 2015 23:39:33
    _STATISTICS_WRITING_DATE_UTC : 2015-04-12 04:24:51
    _STATISTICS_TAGS : BPS DURATION NUMBER_OF_FRAMES NUMBER_OF_BYTES
    DURATION : 02:06:46.208000000
    NUMBER_OF_FRAMES : 237694
    NUMBER_OF_BYTES : 365097984
    Видео
    Идентификатор : 1
    Формат : AVC
    Формат/Информация : Advanced Video Codec
    Профиль формата : High@L4.1
    Параметр CABAC формата : Да
    Параметр ReFrames формата : 8 кадров
    Идентификатор кодека : V_MPEG4/ISO/AVC
    Продолжительность : 2 ч. 6 м.
    Битрейт : 2499 Кбит/сек
    Ширина : 1152 пикселя
    Высота : 482 пикселя
    Соотношение сторон : 2,40:1
    Режим частоты кадров : Постоянный
    Частота кадров : 24,000 кадра/сек
    Цветовое пространство : YUV
    Субдискретизация насыщенности : 4:2:0
    Битовая глубина : 8 бит
    Тип развёртки : Прогрессивная
    Бит/(Пиксели*Кадры) : 0.188
    Размер потока : 2,16 Гбайт (75%)
    Библиотека кодирования : x264 core 142 r2431 ac76440
    Настройки программы : cabac=1 / ref=8 / deblock=1:-2:-1 / analyse=0x3:0x133 / me=umh / subme=9 / psy=1 / psy_rd=1.00:0.05 / mixed_ref=0 / me_range=36 / chroma_me=1 / trellis=2 / 8x8dct=1 / cqm=0 / deadzone=21,11 / fast_pskip=0 / chroma_qp_offset=-3 / threads=4 / lookahead_threads=1 / sliced_threads=0 / nr=0 / decimate=0 / interlaced=0 / bluray_compat=0 / constrained_intra=0 / bframes=12 / b_pyramid=2 / b_adapt=2 / b_bias=0 / direct=1 / weightb=1 / open_gop=0 / weightp=2 / keyint=240 / keyint_min=24 / scenecut=40 / intra_refresh=0 / rc=2pass / mbtree=0 / bitrate=2499 / ratetol=1.0 / qcomp=0.70 / qpmin=10 / qpmax=69 / qpstep=4 / cplxblur=20.0 / qblur=0.5 / ip_ratio=1.40 / pb_ratio=1.30 / aq=1:1.00
    Default : Да
    Forced : Нет
    Аудио #1
    Идентификатор : 2
    Формат : AC-3
    Формат/Информация : Audio Coding 3
    Расширение режима : CM (complete main)
    Параметр Endianness формата : Big
    Идентификатор кодека : A_AC3
    Продолжительность : 2 ч. 6 м.
    Вид битрейта : Постоянный
    Битрейт : 384 Кбит/сек
    Каналы : 6 каналов
    Расположение каналов : Front: L C R, Side: L R, LFE
    Частота : 48,0 КГц
    Битовая глубина : 16 бит
    Метод сжатия : С потерями
    Размер потока : 348 Мбайт (12%)
    Заголовок : Двухголосый закадровый, RAIM & NASTR
    Язык : Russian
    Default : Да
    Forced : Нет
    Аудио #2
    Идентификатор : 3
    Формат : AC-3
    Формат/Информация : Audio Coding 3
    Расширение режима : CM (complete main)
    Параметр Endianness формата : Big
    Идентификатор кодека : A_AC3
    Продолжительность : 2 ч. 6 м.
    Вид битрейта : Постоянный
    Битрейт : 384 Кбит/сек
    Каналы : 6 каналов
    Расположение каналов : Front: L C R, Side: L R, LFE
    Частота : 48,0 КГц
    Битовая глубина : 16 бит
    Метод сжатия : С потерями
    Размер потока : 348 Мбайт (12%)
    Заголовок : Польский
    Язык : Polish
    Default : Нет
    Forced : Да
    Текст #1
    Идентификатор : 4
    Формат : UTF-8
    Идентификатор кодека : S_TEXT/UTF8
    Идентификатор кодека/Информация : UTF-8 Plain Text
    Заголовок : Русские, GlobalTrolle
    Язык : Russian
    Default : Нет
    Forced : Да
    Текст #2
    Идентификатор : 5
    Формат : UTF-8
    Идентификатор кодека : S_TEXT/UTF8
    Идентификатор кодека/Информация : UTF-8 Plain Text
    Заголовок : Английские
    Язык : English
    Default : Нет
    Forced : Да
    Меню
    00:00:00.000 : en:00:00:00.000
    00:06:31.167 : en:00:06:31.167
    00:13:36.833 : en:00:13:36.833
    00:21:37.958 : en:00:21:37.958
    00:27:37.125 : en:00:27:37.125
    00:34:52.292 : en:00:34:52.292
    00:43:22.833 : en:00:43:22.833
    00:50:30.875 : en:00:50:30.875
    00:57:32.083 : en:00:57:32.083
    01:04:56.833 : en:01:04:56.833
    01:15:35.583 : en:01:15:35.583
    01:23:00.667 : en:01:23:00.667
    01:29:06.083 : en:01:29:06.083
    01:36:17.875 : en:01:36:17.875
    01:45:11.292 : en:01:45:11.292
    01:55:40.125 : en:01:55:40.125

    Скриншот c названием фильма

    Скриншоты

    Скачать .torrent

    Скачать торрент-файл бесплатно и на максимальной скорости!

    Как скачивать? · Что такое торрент? · Рейтинг и ограничения

    !ВНИМАНИЕ!
    Сайт не распространяет и не хранит электронные версии произведений, а занимается лишь лишь предоставлением доступа к создаваемому пользователями каталогу ссылок на торрент-файлы, которые содержат только списки хеш-сумм, убедительная просьба с жалобами обращаться напрямую к пользователю. Файлы для обмена на трекере предоставлены пользователями сайта, и администрация не несёт ответственности за их содержание. Просьба не заливать файлы, защищенные авторскими правами, а также файлы нелегального содержания!


    _________________
    [Профиль] [ЛС]
    Показать сообщения:    
    Ответить на тему

    Текущее время: Сегодня, в 08:49

    Часовой пояс: GMT + 2



    Вы не можете начинать темы
    Вы не можете отвечать на сообщения
    Вы не можете редактировать свои сообщения
    Вы не можете удалять свои сообщения
    Вы не можете голосовать в опросах
    Вы не можете прикреплять файлы к сообщениям
    Вы не можете скачивать файлы