BitTorrentTracker PerecTracker.org
BitTorrentTracker PerecTracker.org
    
Регистрация  ·  Вход
 
 · 
Забыли пароль?

  • Друзья встречаются вновь (Камил Ярматов) [1939, военный, приключения, VHSRip]

    Ответить на тему
     
    Автор Сообщение

    Light

    Создавать темы 12-Апр-2015 08:12

           

    [Цитировать]

    Друзья встречаются вновь
    Жанр: военный, приключения
    Страна: СССР
    Студия: Сталинобадская кино-студия
    Год выпуска: 1939
    Продолжительность: 01:22:42.200 (124055 frames)
    Режиссёр: Камил Ярматов
    В ролях:
    Олег Жаков … Корниенко, комиссар отряда
    Касим Мухутдинов … Даньяр, он же Курбаши Шир-хан
    Николай Санишвили … майор Атаев
    Василий Зайчиков … профессор Никитин
    Т.Рахманина … Рано, воспитанница отряда
    Григорий Любимов … Рогов
    Рахим Пирмухамедов … проводник
    Леонид Кмит … шофер
    Бори (Барри) Хайдаров … журналист
    Петр Галаджев … профессор Иракский
    Описание: Первые годы Советской власти в Таджикистане. В пограничных песках работает отряд военных топографов. Среди них под именем красноармейца Даньяра скрывается Шир-хан, главарь банды басмачей и агент иностранной разведки. В песках Шахри-Чанга на отряд нападают басмачи. Топографы мужественно защищают еще не нанесенную на карту советскую землю...
    Через много лет они встречаются на цветущей земле Таджикистана…
    Доп. информация: Релиз:
    Автор рипа: pmv
    Большое спасибо за:
    - исходник – mpanna, apb1, kinolog
    IMDb = - -
    Кинопоиск = - (1) -
    ПРОСЬБА к СКАЧАВШИМ. НЕ УХОДИТЕ С РАЗДАЧИ, ПОМОГИТЕ ДРУГИМ СКАЧАТЬ!!!
    Качество видео: VHSRip
    Формат видео: AVI
    Видео: 512x384 (1.33:1), 25 fps, XviD build 73 ~1097 kbps avg, 0.22 bit/pixel
    Аудио: 48 kHz, MPEG Layer 3, 1 ch, ~96.00 kbps avg

    MediaInfo

    General
    Complete name : D:\torrents\друзья встречаются вновь (1939).avi
    Format : AVI
    Format/Info : Audio Video Interleave
    File size : 712 MiB
    Duration : 1h 22mn
    Overall bit rate : 1 203 Kbps
    Writing library : VirtualDub build 35576/release
    Video
    ID : 0
    Format : MPEG-4 Visual
    Format profile : Advanced Simple@L5
    Format settings, BVOP : Yes
    Format settings, QPel : No
    Format settings, GMC : No warppoints
    Format settings, Matrix : Default (H.263)
    Codec ID : XVID
    Codec ID/Hint : XviD
    Duration : 1h 22mn
    Bit rate : 1 097 Kbps
    Width : 512 pixels
    Height : 384 pixels
    Display aspect ratio : 4:3
    Frame rate : 25.000 fps
    Resolution : 8 bits
    Colorimetry : 4:2:0
    Scan type : Progressive
    Bits/(Pixel*Frame) : 0.223
    Stream size : 649 MiB (91%)
    Writing library : XviD 73
    Audio
    ID : 1
    Format : MPEG Audio
    Format version : Version 1
    Format profile : Layer 3
    Codec ID : 55
    Codec ID/Hint : MP3
    Duration : 1h 22mn
    Bit rate mode : Constant
    Bit rate : 96.0 Kbps
    Channel(s) : 1 channel
    Sampling rate : 48.0 KHz
    Video delay : 100ms
    Stream size : 56.8 MiB (8%)
    Alignment : Split accross interleaves
    Interleave, duration : 40 ms (1.00 video frame)
    Interleave, preload duration : 500 ms

    Скриншоты

    Скачать .torrent

    Скачать торрент-файл бесплатно и на максимальной скорости!

    Как скачивать? · Что такое торрент? · Рейтинг и ограничения

    !ВНИМАНИЕ!
    Сайт не распространяет и не хранит электронные версии произведений, а занимается лишь лишь предоставлением доступа к создаваемому пользователями каталогу ссылок на торрент-файлы, которые содержат только списки хеш-сумм, убедительная просьба с жалобами обращаться напрямую к пользователю. Файлы для обмена на трекере предоставлены пользователями сайта, и администрация не несёт ответственности за их содержание. Просьба не заливать файлы, защищенные авторскими правами, а также файлы нелегального содержания!


    _________________
    [Профиль] [ЛС]
    Показать сообщения:    
    Ответить на тему

    Текущее время: Сегодня, в 14:38

    Часовой пояс: GMT + 2



    Вы не можете начинать темы
    Вы не можете отвечать на сообщения
    Вы не можете редактировать свои сообщения
    Вы не можете удалять свои сообщения
    Вы не можете голосовать в опросах
    Вы не можете прикреплять файлы к сообщениям
    Вы не можете скачивать файлы