BitTorrentTracker PerecTracker.org
BitTorrentTracker PerecTracker.org
    
Регистрация  ·  Вход
 
 · 
Забыли пароль?

  • Заложница 3 / Taken 3 (Оливье Мегатон / Olivier Megaton) [2014, Франция, боевик, триллер, BDRip-AVC] Dub (Русский iTunes) + Dub (Украинский iTunes) + Sub (Rus, Ukr, Eng) + Original Eng

    Ответить на тему
     
    Автор Сообщение

    Light

    Создавать темы 12-Апр-2015 08:12

           

    [Цитировать]

    Заложница 3 / Taken 3
    Страна: Франция
    Жанр: боевик, триллер
    Год выпуска: 2014
    Продолжительность: 01:48:58
    Перевод 1: Профессиональный (дублированный) Русский iTunes
    Перевод 2: Профессиональный (дублированный) Украинский iTunes
    Cубтитры: Русские (Full), украинские (Forced, Full), английские (Forced, SDH)
    Оригинальная аудиодорожка: английский--Режиссер: Оливье Мегатон / Olivier Megaton--В ролях: Лиам Нисон, Мэгги Грэйс, Форест Уитакер, Сэм Спруэлл, Фамке Янссен, Дугрей Скотт, Дон Харви, Дилан Бруно, Лиленд Орсер, Дэвид Уоршофски, Джон Грайз, Джонни Уэстон, Эндрю Борба, Джуди Бичер, Эндрю Ховард, Седрик Сиротто, Катрин Дайер, Джимми Палумбо, Роберт Пралго, Тони Уильямс...--Описание: Жизнь бывшего правительственного агента Брайана Миллса рушится, когда его обвиняют в убийстве, которого он не совершал. Преследуемый опытным инспектором полиции, Миллс пытается отследить настоящего убийцу…--Доп. информация: Kinopoisk | IMDB | Sample--Качество видео: BDRip-AVC
    Формат видео: MKV
    Видео: MPEG4/AVC, 1024х428, 2760 Kbps, 23.976 fps, 0.263 bit/pixel.
    Аудио 1: AC3, 48.0 KHz, 384 Kbps, 6 channels
    Аудио 2: AC3, 48.0 KHz, 192 Kbps, 2 channels
    Аудио 3: AC3, 48.0 KHz, 384 Kbps, 6 channels
    Формат субтитров: softsub (SRT)

    MediaInfo

    General
    Unique ID : 178448700399174815971424412836697669832 (0x863FF83551892370877EA52D9F2700C8)
    Complete name : Taken 3 (2014).mkv
    Format : Matroska
    Format version : Version 4 / Version 2
    File size : 2.89 GiB
    Duration : 1h 48mn
    Overall bit rate : 3 796 Kbps
    Movie name : Taken 3. 2014
    Encoded date : UTC 2015-04-11 18:19:02
    Writing application : mkvmerge v7.8.0 ('River Man') 64bit built on Mar 27 2015 16:31:37
    Writing library : libebml v1.3.1 + libmatroska v1.4.2
    DURATION : 01:48:57.024000000
    NUMBER_OF_FRAMES : 204282
    NUMBER_OF_BYTES : 313777152
    _STATISTICS_WRITING_APP : mkvmerge v7.8.0 ('River Man') 64bit built on Mar 27 2015 16:31:37
    _STATISTICS_WRITING_DATE_UT : 2015-04-11 18:19:02
    _STATISTICS_TAGS : BPS DURATION NUMBER_OF_FRAMES NUMBER_OF_BYTES
    Video
    ID : 1
    Format : AVC
    Format/Info : Advanced Video Codec
    Format profile : High@L4.1
    Format settings, CABAC : Yes
    Format settings, ReFrames : 11 frames
    Codec ID : V_MPEG4/ISO/AVC
    Duration : 1h 48mn
    Bit rate : 2 760 Kbps
    Width : 1 024 pixels
    Height : 428 pixels
    Display aspect ratio : 2.40:1
    Frame rate mode : Constant
    Frame rate : 23.976 fps
    Color space : YUV
    Chroma subsampling : 4:2:0
    Bit depth : 8 bits
    Scan type : Progressive
    Bits/(Pixel*Frame) : 0.263
    Stream size : 2.10 GiB (73%)
    Writing library : x264 core 146 r2538 121396c
    Encoding settings : cabac=1 / ref=11 / deblock=1:-3:-3 / analyse=0x3:0x133 / me=umh / subme=11 / psy=1 / psy_rd=0.98:0.07 / mixed_ref=1 / me_range=32 / chroma_me=1 / trellis=2 / 8x8dct=1 / cqm=0 / deadzone=21,11 / fast_pskip=0 / chroma_qp_offset=-3 / threads=6 / lookahead_threads=1 / sliced_threads=0 / nr=0 / decimate=1 / interlaced=0 / bluray_compat=0 / constrained_intra=0 / bframes=9 / b_pyramid=2 / b_adapt=2 / b_bias=0 / direct=3 / weightb=1 / open_gop=0 / weightp=2 / keyint=240 / keyint_min=23 / scenecut=40 / intra_refresh=0 / rc=crf / mbtree=0 / crf=19.5 / qcomp=0.70 / qpmin=0 / qpmax=69 / qpstep=4 / ip_ratio=1.40 / pb_ratio=1.30 / aq=2:0.80
    Language : English
    Default : Yes
    Forced : No
    DURATION : 01:48:57.156000000
    NUMBER_OF_FRAMES : 156735
    NUMBER_OF_BYTES : 2315440459
    _STATISTICS_WRITING_APP : mkvmerge v7.8.0 ('River Man') 64bit built on Mar 27 2015 16:31:37
    _STATISTICS_WRITING_DATE_UT : 2015-04-11 18:19:02
    _STATISTICS_TAGS : BPS DURATION NUMBER_OF_FRAMES NUMBER_OF_BYTES
    Audio #1
    ID : 2
    Format : AC-3
    Format/Info : Audio Coding 3
    Mode extension : CM (complete main)
    Format settings, Endianness : Big
    Codec ID : A_AC3
    Duration : 1h 48mn
    Bit rate mode : Constant
    Bit rate : 384 Kbps
    Channel(s) : 6 channels
    Channel positions : Front: L C R, Side: L R, LFE
    Sampling rate : 48.0 KHz
    Bit depth : 16 bits
    Compression mode : Lossy
    Stream size : 299 MiB (10%)
    Title : Dub. iTunes
    Language : Russian
    Default : Yes
    Forced : No
    Audio #2
    ID : 3
    Format : AC-3
    Format/Info : Audio Coding 3
    Mode extension : CM (complete main)
    Format settings, Endianness : Big
    Codec ID : A_AC3
    Duration : 1h 48mn
    Bit rate mode : Constant
    Bit rate : 192 Kbps
    Channel(s) : 2 channels
    Channel positions : Front: L R
    Sampling rate : 48.0 KHz
    Bit depth : 16 bits
    Compression mode : Lossy
    Stream size : 150 MiB (5%)
    Title : Dub. iTunes
    Language : Ukrainian
    Default : No
    Forced : No
    Audio #3
    ID : 4
    Format : AC-3
    Format/Info : Audio Coding 3
    Mode extension : CM (complete main)
    Format settings, Endianness : Big
    Codec ID : A_AC3
    Duration : 1h 48mn
    Bit rate mode : Constant
    Bit rate : 384 Kbps
    Channel(s) : 6 channels
    Channel positions : Front: L C R, Side: L R, LFE
    Sampling rate : 48.0 KHz
    Bit depth : 16 bits
    Compression mode : Lossy
    Stream size : 299 MiB (10%)
    Language : English
    Default : No
    Forced : No
    Text #1
    ID : 5
    Format : UTF-8
    Codec ID : S_TEXT/UTF8
    Codec ID/Info : UTF-8 Plain Text
    Title : Full
    Language : Russian
    Default : No
    Forced : No
    Text #2
    ID : 6
    Format : UTF-8
    Codec ID : S_TEXT/UTF8
    Codec ID/Info : UTF-8 Plain Text
    Title : Forced
    Language : Ukrainian
    Default : No
    Forced : No
    Text #3
    ID : 7
    Format : UTF-8
    Codec ID : S_TEXT/UTF8
    Codec ID/Info : UTF-8 Plain Text
    Title : Full
    Language : Ukrainian
    Default : No
    Forced : No
    Text #4
    ID : 8
    Format : UTF-8
    Codec ID : S_TEXT/UTF8
    Codec ID/Info : UTF-8 Plain Text
    Title : Forced
    Language : English
    Default : No
    Forced : No
    Text #5
    ID : 9
    Format : UTF-8
    Codec ID : S_TEXT/UTF8
    Codec ID/Info : UTF-8 Plain Text
    Title : SDH
    Language : English
    Default : No
    Forced : No
    Menu
    00:00:00.000 : en:00:00:00.000
    00:03:47.394 : en:00:03:47.394
    00:09:14.053 : en:00:09:14.053
    00:12:20.823 : en:00:12:20.823
    00:14:45.343 : en:00:14:45.343
    00:17:17.662 : en:00:17:17.662
    00:22:11.121 : en:00:22:11.121
    00:24:41.563 : en:00:24:41.563
    00:26:27.169 : en:00:26:27.169
    00:28:54.566 : en:00:28:54.566
    00:31:10.660 : en:00:31:10.660
    00:34:09.798 : en:00:34:09.798
    00:36:27.310 : en:00:36:27.310
    00:41:31.864 : en:00:41:31.864
    00:44:49.061 : en:00:44:49.061
    00:48:10.638 : en:00:48:10.638
    00:52:43.243 : en:00:52:43.243
    00:56:45.193 : en:00:56:45.193
    01:00:27.540 : en:01:00:27.540
    01:03:34.852 : en:01:03:34.852
    01:04:51.763 : en:01:04:51.763
    01:07:06.355 : en:01:07:06.355
    01:11:02.591 : en:01:11:02.591
    01:14:42.102 : en:01:14:42.102
    01:16:38.635 : en:01:16:38.635
    01:19:43.612 : en:01:19:43.612
    01:23:55.655 : en:01:23:55.655
    01:27:33.331 : en:01:27:33.331
    01:31:16.429 : en:01:31:16.429
    01:34:20.446 : en:01:34:20.446
    01:40:30.649 : en:01:40:30.649
    01:43:26.742 : en:01:43:26.742

    Скриншоты

    Скачать .torrent

    Скачать торрент-файл бесплатно и на максимальной скорости!

    Как скачивать? · Что такое торрент? · Рейтинг и ограничения

    !ВНИМАНИЕ!
    Сайт не распространяет и не хранит электронные версии произведений, а занимается лишь лишь предоставлением доступа к создаваемому пользователями каталогу ссылок на торрент-файлы, которые содержат только списки хеш-сумм, убедительная просьба с жалобами обращаться напрямую к пользователю. Файлы для обмена на трекере предоставлены пользователями сайта, и администрация не несёт ответственности за их содержание. Просьба не заливать файлы, защищенные авторскими правами, а также файлы нелегального содержания!


    _________________
    [Профиль] [ЛС]
    Показать сообщения:    
    Ответить на тему

    Текущее время: Сегодня, в 22:26

    Часовой пояс: GMT + 2



    Вы не можете начинать темы
    Вы не можете отвечать на сообщения
    Вы не можете редактировать свои сообщения
    Вы не можете удалять свои сообщения
    Вы не можете голосовать в опросах
    Вы не можете прикреплять файлы к сообщениям
    Вы не можете скачивать файлы