BitTorrentTracker PerecTracker.org
BitTorrentTracker PerecTracker.org
    
Регистрация  ·  Вход
 
 · 
Забыли пароль?

  • Ковбои против пришельцев / Cowboys and Aliens (Джон Фавро / Jon Favreau) [2011, США, фантастика, боевик, вестерн, BDRip] [Extended edition] AVO (Володарский, Визгунов)

    Ответить на тему
     
    Автор Сообщение

    Light

    Создавать темы 12-Апр-2015 08:12

           

    [Цитировать]

    Ковбои против пришельцев / Cowboys and Aliens-Страна: США
    Жанр: фантастика, боевик, вестерн
    Год выпуска: 2011
    Продолжительность: 02:15:13-Перевод: Авторский (одноголосый закадровый) Леонид Володарский
    Перевод 2: Авторский (одноголосый закадровый) Сергей Визгунов (отдельным файлом)
    Cубтитры: нет-Режиссер: Джон Фавро / Jon Favreau
    В ролях: Дэниэл Крэйг, Харрисон Форд, Оливия Уайлд, Сэм Рокуэлл, Адам Бич, Пол Дано, Ноа Рингер, Эбигейл Спенсер, Бак Тейлор, Мэттью Тейлор-Описание: 1873, Абсолюшен, штат Аризона. В эту глухую американскую провинцию прибывает потерявший память незнакомец. Единственный намек на его прошлое - это странные кандалы на одном из его запястий. Странник быстро узнает, что жители городка не рады незнакомцам, да и вообще они выходят на улицы лишь по приказу полковника Долархайда, правящего в этой местности железной рукой.Вскоре странное поведение жителей объясняется. Периодически с неба обрушиваются ужасающие создания, которые забирают все, что им заблагорассудится и держат город в паническом страхе. Главный герой, постепенно вспоминающий о том, что с ним произошло, становится единственной надеждой города на спасение.-Сэмпл-Качество видео: BDRip
    Формат видео: AVI
    Видео: 720x304 (2.37:1), 23.976 fps, XviD MPEG-4 ~1335 kbps avg, 0.25 bit/pixel
    Аудио: 48 kHz, AC3 Dolby Digital, 2/0 (L,R) ch, ~192 kbps
    Аудио 2: 48 kHz, AC3 Dolby Digital, 3/2 (L,C,R,l,r) + LFE ch, ~448 kbps (отдельным файлом)

    MediaInfo

    General
    Complete name : E:\Downloads\Cowboys.Aliens.BDRip.2AVO\Cowboys and Aliens.avi
    Format : AVI
    Format/Info : Audio Video Interleave
    File size : 1.45 GiB
    Duration : 2h 15mn
    Overall bit rate : 1 537 Kbps
    Writing application : VirtualDubMod 1.5.10.2 (build 2540/release)
    Writing library : VirtualDubMod build 2540/release
    Video
    ID : 0
    Format : MPEG-4 Visual
    Format profile : Advanced Simple@L5
    Format settings, BVOP : 2
    Format settings, QPel : No
    Format settings, GMC : No warppoints
    Format settings, Matrix : Custom
    Muxing mode : Packed bitstream
    Codec ID : XVID
    Codec ID/Hint : XviD
    Duration : 2h 15mn
    Bit rate : 1 336 Kbps
    Width : 720 pixels
    Height : 304 pixels
    Display aspect ratio : 2.35:1
    Frame rate : 23.976 fps
    Color space : YUV
    Chroma subsampling : 4:2:0
    Bit depth : 8 bits
    Scan type : Progressive
    Compression mode : Lossy
    Bits/(Pixel*Frame) : 0.255
    Stream size : 1.26 GiB (87%)
    Writing library : XviD 64
    Audio
    ID : 1
    Format : AC-3
    Format/Info : Audio Coding 3
    Mode extension : CM (complete main)
    Format settings, Endianness : Big
    Codec ID : 2000
    Duration : 2h 15mn
    Bit rate mode : Constant
    Bit rate : 192 Kbps
    Channel(s) : 2 channels
    Channel positions : Front: L R
    Sampling rate : 48.0 KHz
    Bit depth : 16 bits
    Compression mode : Lossy
    Stream size : 186 MiB (12%)
    Alignment : Split accross interleaves
    Interleave, duration : 42 ms (1.00 video frame)
    Interleave, preload duration : 500 ms

    Скриншот c названием фильма

    Скриншоты

    Скачать .torrent

    Скачать торрент-файл бесплатно и на максимальной скорости!

    Как скачивать? · Что такое торрент? · Рейтинг и ограничения

    !ВНИМАНИЕ!
    Сайт не распространяет и не хранит электронные версии произведений, а занимается лишь лишь предоставлением доступа к создаваемому пользователями каталогу ссылок на торрент-файлы, которые содержат только списки хеш-сумм, убедительная просьба с жалобами обращаться напрямую к пользователю. Файлы для обмена на трекере предоставлены пользователями сайта, и администрация не несёт ответственности за их содержание. Просьба не заливать файлы, защищенные авторскими правами, а также файлы нелегального содержания!


    _________________
    [Профиль] [ЛС]
    Показать сообщения:    
    Ответить на тему

    Текущее время: Сегодня, в 03:10

    Часовой пояс: GMT + 2



    Вы не можете начинать темы
    Вы не можете отвечать на сообщения
    Вы не можете редактировать свои сообщения
    Вы не можете удалять свои сообщения
    Вы не можете голосовать в опросах
    Вы не можете прикреплять файлы к сообщениям
    Вы не можете скачивать файлы