BitTorrentTracker PerecTracker.org
BitTorrentTracker PerecTracker.org
    
Регистрация  ·  Вход
 
 · 
Забыли пароль?

  • Золотой Гусь / Die Goldene Gans (Карстен Фибелер / Carsten Fiebeler) [2013, Германия, сказка, детский, семейный, экранизация, HDTVRip] DVO (компания "Игмар") + Original Ger

    Ответить на тему
     
    Автор Сообщение

    Light

    Создавать темы 11-Апр-2015 23:48

           

    [Цитировать]

    Золотой Гусь / Die Goldene GansСтрана: Германия
    Жанр: сказка, детский, семейный, экранизация
    Год выпуска: 2013
    Продолжительность: 01:27:20
    Перевод: Профессиональный (двухголосый закадровый) компания "Игмар"
    Cубтитры: нет
    Оригинальная аудиодорожка: немецкий
    Режиссер: Карстен Фибелер / Carsten Fiebeler
    В ролях: Джереми Мокридж, Йелла Хаасе, Инго Науйокс, Ульрике Крумбигель, Арндт Шверинг-Зонрай, Роланд Шрегльманн, Анна Бёттхер, Тереза Вайссбах, Тиль Флориан Байербах, Хильмар Эйхогерн, Торстен Мертен, Эдин Хасанович, Адольфо Ассер
    Описание: Экранизация одноименной сказки братьев Гримм. Однажды простачок Тиль спасает от голода бедного старика и в благодарность получает от него золотого гуся. Но деньги и имущество не представляют для Тиля никакой ценности. При помощи этого волшебного подарка юноша хочет сделать печальную принцессу счастливой. Но путь в королевство долгий и непростой, так как жадные люди хотят отнять необычную птицу...
    Сэмпл: http://multi-up.com/1043249
    Качество видео: HDTVRip
    Исходник: Die.goldene.Gans.2013.GERMAN.720p.HDTV.x264
    Формат видео: AVI
    Видео: XviD, 720x3384 (1.865:1), 25.000 fps, 1911 kbps avg
    Аудио: Russian AC3 Dolby Digital, 48 kHz, 2/0 (L,R) ch, 192.00 kbps avg
    Аудио 2: German AC3 Dolby Digital, 48 kHz, 2/0 (L,R) ch, 192.00 kbps avg

    MediaInfo

    General
    Complete name : E:\Die Goldene Gans (2013)\Die Goldene Gans (2013).HDTVRip.DVO.avi
    Format : AVI
    Format/Info : Audio Video Interleave
    File size : 1.41 GiB
    Duration : 1h 27mn
    Overall bit rate : 2 310 Kbps
    Writing application : VirtualDubModRus 1.5.10.2 (build 2542/release)
    Writing library : VirtualDubMod build 2542/release
    Video
    ID : 0
    Format : MPEG-4 Visual
    Format profile : Advanced Simple@L5
    Format settings, BVOP : 1
    Format settings, QPel : No
    Format settings, GMC : No warppoints
    Format settings, Matrix : Default (MPEG)
    Codec ID : XVID
    Codec ID/Hint : XviD
    Duration : 1h 27mn
    Bit rate : 1 911 Kbps
    Width : 720 pixels
    Height : 384 pixels
    Display aspect ratio : 1.85:1
    Frame rate : 25.000 fps
    Color space : YUV
    Chroma subsampling : 4:2:0
    Bit depth : 8 bits
    Scan type : Progressive
    Compression mode : Lossy
    Bits/(Pixel*Frame) : 0.276
    Stream size : 1.17 GiB (83%)
    Writing library : XviD 73
    Audio #1
    ID : 1
    Format : AC-3
    Format/Info : Audio Coding 3
    Mode extension : CM (complete main)
    Format settings, Endianness : Big
    Codec ID : 2000
    Duration : 1h 27mn
    Bit rate mode : Constant
    Bit rate : 192 Kbps
    Channel(s) : 2 channels
    Channel positions : Front: L R
    Sampling rate : 48.0 KHz
    Bit depth : 16 bits
    Compression mode : Lossy
    Delay relative to video : 26ms
    Stream size : 120 MiB (8%)
    Alignment : Split accross interleaves
    Interleave, duration : 40 ms (1.00 video frame)
    Interleave, preload duration : 500 ms
    Audio #2
    ID : 2
    Format : AC-3
    Format/Info : Audio Coding 3
    Mode extension : CM (complete main)
    Format settings, Endianness : Big
    Codec ID : 2000
    Duration : 1h 27mn
    Bit rate mode : Constant
    Bit rate : 192 Kbps
    Channel(s) : 2 channels
    Channel positions : Front: L R
    Sampling rate : 48.0 KHz
    Bit depth : 16 bits
    Compression mode : Lossy
    Stream size : 120 MiB (8%)
    Alignment : Split accross interleaves
    Interleave, duration : 40 ms (1.00 video frame)
    Interleave, preload duration : 500 ms

    Скриншоты

    Скачать .torrent

    Скачать торрент-файл бесплатно и на максимальной скорости!

    Как скачивать? · Что такое торрент? · Рейтинг и ограничения

    !ВНИМАНИЕ!
    Сайт не распространяет и не хранит электронные версии произведений, а занимается лишь лишь предоставлением доступа к создаваемому пользователями каталогу ссылок на торрент-файлы, которые содержат только списки хеш-сумм, убедительная просьба с жалобами обращаться напрямую к пользователю. Файлы для обмена на трекере предоставлены пользователями сайта, и администрация не несёт ответственности за их содержание. Просьба не заливать файлы, защищенные авторскими правами, а также файлы нелегального содержания!


    _________________
    [Профиль] [ЛС]
    Показать сообщения:    
    Ответить на тему

    Текущее время: Сегодня, в 02:24

    Часовой пояс: GMT + 2



    Вы не можете начинать темы
    Вы не можете отвечать на сообщения
    Вы не можете редактировать свои сообщения
    Вы не можете удалять свои сообщения
    Вы не можете голосовать в опросах
    Вы не можете прикреплять файлы к сообщениям
    Вы не можете скачивать файлы