BitTorrentTracker PerecTracker.org
BitTorrentTracker PerecTracker.org
    
Регистрация  ·  Вход
 
 · 
Забыли пароль?

  • Наказ матери (Баир Дышенов) [2011, Драма, Короткометражный, DVB 1080p] sub

    Ответить на тему
     
    Автор Сообщение

    rechyn

    Создавать темы 11-Апр-2015 19:36

           

    [Цитировать]

    НАКАЗ МАТЕРИ
    Жанр: Драма
    Год выпуска: 2011
    Продолжительность: 00:28:00
    Перевод: Субтитры, hardsub
    Оригинальная аудио дорожка: Бурятский
    Режиссёр: Баир Дышенов
    Студия "БурятКино"
    В ролях: Баста Цыденов, Намсалма Шагдарова
    Описание: "Наказ матери" снят по мотивам бурятской буддийской притчи. В картине рассказывается о сыне, который, забыв о наказе престарелой слепой матери привезти образ божества, устанавливает ей в божницу обычную палку, обернутую тканью. После смерти матери сын обнаруживает на божнице истинную Богиню - "Мать Зеленую Тару".
    Доп. информация: Вторая работа режиссера Баира Дышенова "Наказ матери" вошла в программу известнейшего мирового форума кинофестиваля в Каннах, который состоится в мае, сообщил РИА Новости представитель киностудии "Гэсэр".
    Дышенов получил официальное подтверждение участия фильма "Наказ матери" в рамках смотра короткометражных фильмов Каннского кинофестиваля - Short Film Corner Cannes Court Metrage Festival de Cannes 2012.
    Фильм представлен в каталоге короткого метра кинофестиваля. Дышенов также выступил автором сценария, режиссером и продюсером. Съемки проходили в прошлом году в Бурятии, над картиной работала команда профессионалов из Улан-Удэ, Иркутска, Москвы, а также из Киргизии и Франции. Главные роли в фильме сыграли актеры Бурятского академического театра драмы Намсалма Шагдарова и Баста Цыденов.
    Дебютная лента режиссера Дышенова "Улыбка Будды" в 2009 году получила приз Берлинского кинофестиваля "Хрустальный медведь". Это философская притча об обретении веры маленьким деревенским мальчиком. Как заявлял Дышенов, фильм - не религиозный, он представляет собой рассказ о духовном мире ребенка, который еще по-детски смотрит на мир, но открывает в нем для себя нравственные ценности.
    Сэмпл: http://sendfile.su/1088016
    Качество видео: DVB 1080p
    Формат видео: MP4
    Видео: AVC, 1920x1080, 16:9, 25.000 fps, 2453 kbps, hardsub
    Аудио: Бурятский, AAC, 44.1 KHz, 153 Kbps VBR, 2 ch. Front: L R

    MediaInfo

    General
    Complete name : I:\DHARMA\FILMS\Наказ_матери_2010\Наказ_матери_2010_AVCHD\Наказ_матери_2010_AVCHD.mp4
    Format : MPEG-4
    Format profile : Base Media
    Codec ID : isom
    File size : 523 MiB
    Duration : 28mn 0s
    Overall bit rate mode : Variable
    Overall bit rate : 2 610 Kbps
    Encoded date : UTC 2015-02-18 17:27:55
    Tagged date : UTC 2015-02-18 17:27:55
    Writing application : My MP4Box GUI 0.6.0.6 <http: //my-mp4box-gui.zymichost.com>
    Video
    ID : 1
    Format : AVC
    Format/Info : Advanced Video Codec
    Format profile : High@L4.0
    Format settings, CABAC : Yes
    Format settings, ReFrames : 2 frames
    Codec ID : avc1
    Codec ID/Info : Advanced Video Coding
    Duration : 28mn 0s
    Bit rate : 2 453 Kbps
    Maximum bit rate : 9 749 Kbps
    Width : 1 920 pixels
    Height : 1 080 pixels
    Display aspect ratio : 16:9
    Frame rate mode : Constant
    Frame rate : 25.000 fps
    Color space : YUV
    Chroma subsampling : 4:2:0
    Bit depth : 8 bits
    Scan type : Progressive
    Bits/(Pixel*Frame) : 0.047
    Stream size : 491 MiB (94%)
    Title : nakaz_track1.h264
    Encoded date : UTC 2015-02-18 17:27:55
    Tagged date : UTC 2015-02-18 17:28:21
    Audio
    ID : 2
    Format : AAC
    Format/Info : Advanced Audio Codec
    Format profile : LC
    Codec ID : 40
    Duration : 28mn 0s
    Bit rate mode : Variable
    Bit rate : 153 Kbps
    Maximum bit rate : 280 Kbps
    Channel(s) : 2 channels
    Channel positions : Front: L R
    Sampling rate : 44.1 KHz
    Compression mode : Lossy
    Stream size : 30.7 MiB (6%)
    Title : nakaz.m4a
    Language : English
    Encoded date : UTC 2015-02-18 17:28:19
    Tagged date : UTC 2015-02-18 17:28:21

    Скриншот c названием фильма

    Скриншоты

    Скачать .torrent

    Скачать торрент-файл бесплатно и на максимальной скорости!

    Как скачивать? · Что такое торрент? · Рейтинг и ограничения

    !ВНИМАНИЕ!
    Сайт не распространяет и не хранит электронные версии произведений, а занимается лишь лишь предоставлением доступа к создаваемому пользователями каталогу ссылок на торрент-файлы, которые содержат только списки хеш-сумм, убедительная просьба с жалобами обращаться напрямую к пользователю. Файлы для обмена на трекере предоставлены пользователями сайта, и администрация не несёт ответственности за их содержание. Просьба не заливать файлы, защищенные авторскими правами, а также файлы нелегального содержания!


    _________________
    [Профиль] [ЛС]
    Показать сообщения:    
    Ответить на тему

    Текущее время: Сегодня, в 04:21

    Часовой пояс: GMT + 2



    Вы не можете начинать темы
    Вы не можете отвечать на сообщения
    Вы не можете редактировать свои сообщения
    Вы не можете удалять свои сообщения
    Вы не можете голосовать в опросах
    Вы не можете прикреплять файлы к сообщениям
    Вы не можете скачивать файлы