BitTorrentTracker PerecTracker.org
BitTorrentTracker PerecTracker.org
    
Регистрация  ·  Вход
 
 · 
Забыли пароль?

  • На Верхней Масловке (Константин Худяков) [2004, Россия, драма, DVDRip]

    Ответить на тему
     
    Автор Сообщение

    rechyn

    Создавать темы 11-Апр-2015 19:36

           

    [Цитировать]

    На Верхней Масловке-Страна: Россия
    Год выпуска: 2004
    Жанр: драма
    Продолжительность: 01:55:25
    Перевод: не требуется
    Режиссер: Константин Худяков
    В ролях: Алиса Фрейндлих, Евгений Миронов, Алёна Бабенко, Евгений Князев, Екатерина Гусева, Дмитрий Куличков, Илья Рутберг
    Описание: Анна Борисовна — в прошлом знаменитая скульпторша, которая покоряла в свое время российскую и французскую столицы. Теперь ей за 80, но, несмотря на преклонный возраст, она сохраняет ясность и живость ума, меткий юмор и интерес к жизни.
    Петр — театровед по образованию, режиссер самодеятельного театра. Когда-то он с успехом начинал, много публиковался, но потом сдал и так и не смог сделать что-то заметное в искусстве. Уже много лет, не имея собственного жилья в Москве, он живет у Анны Борисовны в квартире на Верхней Масловке, ухаживает за ней, помогает по хозяйству.
    Взаимоотношения этих людей противоречивы и загадочны, между ними огромная разница в возрасте и в эмоциональном складе. Порой кажется, что Анна Борисовна и Петр ненавидят друг друга. Но что же тогда удерживает их вместе столько лет?
    -Качество: DVDRip [DVD9]
    Формат: AVI
    Видео кодек: XviD
    Аудио кодек: AC3
    Видео: 656x480 (1.37:1), 25 fps, XviD build 73 ~1609 kbps avg, 0.20 bit/pixel
    Аудио: 48 kHz, AC3 Dolby Digital, 2/0 (L,R) ch, ~192 kbps-Раздача от: -

    Скриншоты

    MI

    D:\Мои рипы\Na.verh.maslovke.2005.dvdrip.dexter_lex.avi
      General
        Complete name : D:\Мои рипы\Na.verh.maslovke.2005.dvdrip.dexter_lex.avi
        Format : AVI
        Format/Info : Audio Video Interleave
        File size : 1.46 GiB
        Duration : 1h 55mn
        Overall bit rate : 1 812 Kbps
        Movie name : Na.verh.maslovke.2005.dvdrip.dexter_lex
        Director : dexter lex
        Writing application : VirtualDubMod 1.5.10.3 | www.virtualdub-fr.org || (build 2550/release)
      Video #0
        ID : 0
        Format : MPEG-4 Visual
        Format profile : Advanced Simple@L5
        Format settings, BVOP : 1
        Format settings, QPel : No
        Format settings, GMC : No warppoints
        Format settings, Matrix : Custom
        Codec ID : XVID
        Codec ID/Hint : XviD
        Duration : 1h 55mn
        Bit rate : 1 610 Kbps
        Width : 656 pixels
        Height : 480 pixels
        Display aspect ratio : 4:3
        Frame rate : 25.000 fps
        Color space : YUV
        Chroma subsampling : 4:2:0
        Bit depth : 8 bits
        Scan type : Progressive
        Compression mode : Lossy
        Bits/(Pixel*Frame) : 0.205
        Stream size : 1.30 GiB (89%)
        Writing library : XviD 73
      Audio #1
        ID : 1
        Format : AC-3
        Format/Info : Audio Coding 3
        Mode extension : CM (complete main)
        Codec ID : 2000
        Duration : 1h 55mn
        Bit rate mode : Constant
        Bit rate : 192 Kbps
        Channel(s) : 2 channels
        Channel positions : Front: L R
        Sampling rate : 48.0 KHz
        Bit depth : 16 bits
        Compression mode : Lossy
        Stream size : 159 MiB (11%)
        Alignment : Split accross interleaves
        Interleave, duration : 40 ms (1.00 video frame)
        Interleave, preload duration : 500 ms
    Скачать .torrent

    Скачать торрент-файл бесплатно и на максимальной скорости!

    Как скачивать? · Что такое торрент? · Рейтинг и ограничения

    !ВНИМАНИЕ!
    Сайт не распространяет и не хранит электронные версии произведений, а занимается лишь лишь предоставлением доступа к создаваемому пользователями каталогу ссылок на торрент-файлы, которые содержат только списки хеш-сумм, убедительная просьба с жалобами обращаться напрямую к пользователю. Файлы для обмена на трекере предоставлены пользователями сайта, и администрация не несёт ответственности за их содержание. Просьба не заливать файлы, защищенные авторскими правами, а также файлы нелегального содержания!


    _________________
    [Профиль] [ЛС]
    Показать сообщения:    
    Ответить на тему

    Текущее время: Сегодня, в 04:03

    Часовой пояс: GMT + 2



    Вы не можете начинать темы
    Вы не можете отвечать на сообщения
    Вы не можете редактировать свои сообщения
    Вы не можете удалять свои сообщения
    Вы не можете голосовать в опросах
    Вы не можете прикреплять файлы к сообщениям
    Вы не можете скачивать файлы