BitTorrentTracker PerecTracker.org
BitTorrentTracker PerecTracker.org
    
Регистрация  ·  Вход
 
 · 
Забыли пароль?

  • Простить за всё (Павел Снисаренко) [2015, Мелодрама, DVB]

    Ответить на тему
     
    Автор Сообщение

    rechyn

    Создавать темы 11-Апр-2015 19:36

           

    [Цитировать]

    Простить за всё
    Год выпуска: 2015
    Жанр: Мелодрама
    Производство: Россия, Паламеда Продакшн
    Продолжительность: 01:30:50
    Субтитры: нет
    Режиссёр: Павел Снисаренко
    В ролях: Марина Денисова, Андрей Фролов, Николай Иванов, Маша Мацель, Олеся Грибок
    Описание: Муж Михаил не сделал Анну счастливой. Он пропадает вечерами, приходит нетрезвым. Жизнь Анны катится под откос. Но всё меняется, когда в школу, где Анна работает учителем, приходит новый учитель ОБЖ Андрей. Когда-то Анна и Андрей любили друг друга, но Анна уже много лет считает, что Андрея нет в живых. Анна оскорблена: если бы Андрей нашел возможность сообщить ей, что он жив, её жизнь могла бы быть счастливой. А тем временем Михаил втягивает Анну в серьёзные неприятности. И помочь ей может только один человек — Андрей. Но для того, чтобы это произошло, надо превозмочь свою гордость и простить за всё…

    Качество: DVB
    Контейнер: TS
    Видео: H.264 768х576 @ 720x576 (4:3) 25.00fps ~2525 Kbps (0.243 bit/pixel)
    Аудио: MPEG Audio 48000Hz 2 channels 192 Кбит/сек
    Сторонней рекламы нет!

    MediaInfo

    ОбщееИдентификатор : 1 (0x1)Полное имя : F:\Простить за всё DVB_by_Wowa63_&_Серый1779.tsФормат : MPEG-TSРазмер файла : 1,82 ГбайтПродолжительность : 1 ч. 30 м.Общий поток : 2860 Кбит/секМаксимальный общий битрейт : 35,5 Мбит/сек
    ВидеоИдентификатор : 4113 (0x1011)Идентификатор меню : 1 (0x1)Формат : AVCФормат/Информация : Advanced Video CodecПрофиль формата : High@L4.1Параметр CABAC формата : ДаПараметр ReFrames формата : 3 кадраИдентификатор кодека : 27Продолжительность : 1 ч. 30 м.Вид битрейта : ПеременныйБитрейт : 2525 Кбит/секМаксимальный битрейт : 40,0 Мбит/секШирина : 720 пикс.Высота : 576 пикс.Соотношение сторон : 4:3Частота кадров : 25,000 кадр/секСтандарт вещания : PALЦветовое пространство : YUVПодвыборка цветности : 4:2:0Битовая глубина : 8 битТип развёртки : ПрогрессивнаяБит/(Пиксели*Кадры) : 0.243Размер потока : 1,60 Гбайт (88%)Язык : English
    АудиоИдентификатор : 4352 (0x1100)Идентификатор меню : 1 (0x1)Формат : MPEG AudioВерсия формата : Version 1Профиль формата : Layer 2Идентификатор кодека : 4Продолжительность : 1 ч. 30 м.Вид битрейта : ПостоянныйБитрейт : 192 Кбит/секКаналы : 2 каналаЧастота : 48,0 КГцМетод сжатия : С потерямиРазмер потока : 125 Мбайт (7%)
    Запись и монтаж:
    Оформление:
    Раздача группы:

    Скриншот c названием фильма

    Скриншоты

    Скачать .torrent

    Скачать торрент-файл бесплатно и на максимальной скорости!

    Как скачивать? · Что такое торрент? · Рейтинг и ограничения

    !ВНИМАНИЕ!
    Сайт не распространяет и не хранит электронные версии произведений, а занимается лишь лишь предоставлением доступа к создаваемому пользователями каталогу ссылок на торрент-файлы, которые содержат только списки хеш-сумм, убедительная просьба с жалобами обращаться напрямую к пользователю. Файлы для обмена на трекере предоставлены пользователями сайта, и администрация не несёт ответственности за их содержание. Просьба не заливать файлы, защищенные авторскими правами, а также файлы нелегального содержания!


    _________________
    [Профиль] [ЛС]
    Показать сообщения:    
    Ответить на тему

    Текущее время: Сегодня, в 04:22

    Часовой пояс: GMT + 2



    Вы не можете начинать темы
    Вы не можете отвечать на сообщения
    Вы не можете редактировать свои сообщения
    Вы не можете удалять свои сообщения
    Вы не можете голосовать в опросах
    Вы не можете прикреплять файлы к сообщениям
    Вы не можете скачивать файлы