BitTorrentTracker PerecTracker.org
BitTorrentTracker PerecTracker.org
    
Регистрация  ·  Вход
 
 · 
Забыли пароль?

  • Горячий снег (Гавриил Егиазаров) [1972, военный, драма, HDTVRip-AVC]

    Ответить на тему
     
    Автор Сообщение

    rechyn

    Создавать темы 11-Апр-2015 19:36

           

    [Цитировать]

    Горячий снег
    Жанр: военный, драма
    Год выпуска: 1972
    Продолжительность: 01:38:50
    Режиссёр: Гавриил Егиазаров
    В ролях: Георгий Жжёнов (генерал Бессонов), Анатолий Кузнецов (Виталий Исаевич Веснин), Борис Токарев (лейтенант Кузнецов), Вадим Спиридонов (полковник Деев), Тамара Седельникова (Татьяна), Ара Бабаджанян, Юрий Назаров (сержант Уханов), Алексей Панькин, Валентин Грачев, Константин Тыртов, Болот Бейшеналиев, Игорь Ледогоров (полковник Осин)
    Описание: Фильм рассказывает об одном из эпизодов героического сражения против фашистов на подступах к Сталинграду, а именно Котельниковской оборонительной операции, в котором в полной мере проявились стойкость и сила духа советских солдат.
    Под Сталинградом окружена 330 тысячная группировка немецко-фашистских войск фельдмаршала Паулюса. Для разрыва кольца Гитлер отправляет в бой отборные танковые части, так называемый «танковый кулак» под командованием фельдмаршала Манштейна. Нашим войскам отдан приказ: любой ценой остановить наступление...
    Доп. информация:
    Авторы сценария:
    Юрий Бондарев
    Евгений Григорьев
    Гавриил Егиазаров
    Оператор: Фёдор Добронравов
    Художник: Василий Голиков
    Композитор: Альфред Шнитке
    Дирижёр: Владимир Васильев


    Сэмпл: http://sendfile.su/1091661
    Качество видео: HDTVRip-AVC
    Формат видео: MKV
    Видео: AVC, 1056x448 (2.35:1), 2769 kbps, 25 fps, 0,234 bpp
    Аудио: русский, AC3, 48 kHz, 192 kbps, 2.0

    MediaInfo

    General
    Unique ID : 211493006943027449071280513144777453417 (0x9F1C124E7AD72E2A8E37067103A5AF69)
    Complete name : Gorjachij.sneg.HDTVRip-AVC.mkv
    Format : Matroska
    Format version : Version 4 / Version 2
    File size : 2.05 GiB
    Duration : 1h 38mn
    Overall bit rate : 2 963 Kbps
    Encoded date : UTC 2015-03-02 20:19:45
    Writing application : mkvmerge v7.6.0 ('Garden of Dreams') 64bit built on Feb 8 2015 13:04:34
    Writing library : libebml v1.3.1 + libmatroska v1.4.2
    DURATION : 01:38:49.984000000
    NUMBER_OF_FRAMES : 185312
    NUMBER_OF_BYTES : 142319616
    _STATISTICS_WRITING_APP : mkvmerge v7.6.0 ('Garden of Dreams') 64bit built on Feb 8 2015 13:04:34
    _STATISTICS_WRITING_DATE_UTC : 2015-03-02 20:19:45
    _STATISTICS_TAGS : BPS DURATION NUMBER_OF_FRAMES NUMBER_OF_BYTES
    Video
    ID : 1
    Format : AVC
    Format/Info : Advanced Video Codec
    Format profile : High@L4.1
    Format settings, CABAC : Yes
    Format settings, ReFrames : 8 frames
    Codec ID : V_MPEG4/ISO/AVC
    Duration : 1h 38mn
    Bit rate : 2 769 Kbps
    Width : 1 056 pixels
    Height : 448 pixels
    Display aspect ratio : 2.35:1
    Frame rate : 25.000 fps
    Color space : YUV
    Chroma subsampling : 4:2:0
    Bit depth : 8 bits
    Scan type : Progressive
    Bits/(Pixel*Frame) : 0.234
    Stream size : 1.87 GiB (92%)
    Writing library : x264 core 142 r2431 ac76440
    Encoding settings : cabac=1 / ref=8 / deblock=1:-2:-2 / analyse=0x3:0x133 / me=umh / subme=11 / psy=1 / psy_rd=1.00:0.25 / mixed_ref=1 / me_range=32 / chroma_me=1 / trellis=2 / 8x8dct=1 / cqm=0 / deadzone=6,6 / fast_pskip=1 / chroma_qp_offset=-4 / threads=6 / lookahead_threads=1 / sliced_threads=0 / nr=0 / decimate=0 / interlaced=0 / bluray_compat=0 / constrained_intra=0 / bframes=8 / b_pyramid=2 / b_adapt=2 / b_bias=0 / direct=3 / weightb=1 / open_gop=0 / weightp=2 / keyint=250 / keyint_min=25 / scenecut=40 / intra_refresh=0 / rc_lookahead=60 / rc=2pass / mbtree=1 / bitrate=2769 / ratetol=1.0 / qcomp=0.80 / qpmin=10 / qpmax=51 / qpstep=4 / cplxblur=20.0 / qblur=0.5 / vbv_maxrate=62500 / vbv_bufsize=78125 / nal_hrd=none / filler=0 / ip_ratio=1.10 / aq=1:0.50
    Default : Yes
    Forced : No
    Color primaries : BT.709-5, BT.1361, IEC 61966-2-4, SMPTE RP177
    Transfer characteristics : BT.709-5, BT.1361
    Matrix coefficients : BT.709-5, BT.1361, IEC 61966-2-4 709, SMPTE RP177
    Audio
    ID : 2
    Format : AC-3
    Format/Info : Audio Coding 3
    Mode extension : CM (complete main)
    Format settings, Endianness : Big
    Codec ID : A_AC3
    Duration : 1h 38mn
    Bit rate mode : Constant
    Bit rate : 192 Kbps
    Channel(s) : 2 channels
    Channel positions : Front: L R
    Sampling rate : 48.0 KHz
    Bit depth : 16 bits
    Compression mode : Lossy
    Stream size : 136 MiB (6%)
    Language : Russian
    Default : Yes
    Forced : No

    Скриншоты

    Сравнение скриншотов

    http://screenshotcomparison.com/comparison/114100
    с этой раздачей:
    http://perectracker.org/viewtopic.php?t=4035927
    Скачать .torrent

    Скачать торрент-файл бесплатно и на максимальной скорости!

    Как скачивать? · Что такое торрент? · Рейтинг и ограничения

    !ВНИМАНИЕ!
    Сайт не распространяет и не хранит электронные версии произведений, а занимается лишь лишь предоставлением доступа к создаваемому пользователями каталогу ссылок на торрент-файлы, которые содержат только списки хеш-сумм, убедительная просьба с жалобами обращаться напрямую к пользователю. Файлы для обмена на трекере предоставлены пользователями сайта, и администрация не несёт ответственности за их содержание. Просьба не заливать файлы, защищенные авторскими правами, а также файлы нелегального содержания!


    _________________
    [Профиль] [ЛС]

    -746

    Создавать темы 22-Дек-2015 23:16 (спустя 8 месяцев 11 дней)

           

    Топик был перенесен из форума Наше кино в форум Кино СССР


    -sasha2006

    _________________
    Как бы ты высоко не летал, не забывай, с кем ты ползал..
     
    Показать сообщения:    
    Ответить на тему

    Текущее время: Сегодня, в 12:53

    Часовой пояс: GMT + 2



    Вы не можете начинать темы
    Вы не можете отвечать на сообщения
    Вы не можете редактировать свои сообщения
    Вы не можете удалять свои сообщения
    Вы не можете голосовать в опросах
    Вы не можете прикреплять файлы к сообщениям
    Вы не можете скачивать файлы