BitTorrentTracker PerecTracker.org
BitTorrentTracker PerecTracker.org
    
Регистрация  ·  Вход
 
 · 
Забыли пароль?

  • Сорочинская ярмарка (Семён Горов) [2004, мюзикл, комедия, мелодрама, DVDRip, AVC]

    Ответить на тему
     
    Автор Сообщение

    rechyn

    Создавать темы 11-Апр-2015 19:36

           

    [Цитировать]

    Сорочинская ярмаркаЖанр: мюзикл, комедия, мелодрама
    Год выпуска: 2004
    Продолжительность: 01:43:51
    Режиссёр: Семён Горов
    В ролях: Георгий Хостикоев, Валерий Меладзе, Андрей Данилко, Анатолий Дяченко, Андрей Федорцов, Надежда Грановская, Вера Брежнева, Светлана Лобода, Юрий Гальцев, Руслана Писанка, София Ротару, Алика Смехова, Виктор Цекало, Ирина Билык, Инна Белоконь, Ярослав Гуревич
    Описание: Богатый селянин Солопий Черевык едет на знаменитую Сорочинскую ярмарку продавать пшеницу. Вместе с ним отправилась и вся его семья: сварливая жена Хывря и три дочки Параська, Горпына и Мотря.
    Молодой парубок Грыцько, встретив на ярмарке Параську, влюбляется в нее. Но мачеха Хывря против их свадьбы. Грыцько знакомится на ярмарке с цыганкой — ворожкой, которая помогает ему уговорить родителей Параськи выдать за него дочь.
    Параллельно с этим разворачиваются комические события, связанные с таинственной историей про червоную свитку. Весь рассказ кума Цыбули о червоной свитке экранизирован и насыщен множеством эксцентричных сцен. В финале истории главные герои обретают счастье, и все завершается веселой свадьбой.
    Доп. информация: Собственный рип с DVD9 версии фильма
    Сэмпл: http://sendfile.su/1094554
    Качество видео: DVDRip
    Формат видео: MKV
    Видео: AVC, 700(742)*460, 16:10, 25.000 кадров/сек, 2462 Кбит/сек
    Аудио: русский, AC-3, 48,0 КГц, 384 Кбит/сек, 5.1 (6 каналов)

    MediaInfo

    Общее
    Уникальный идентификатор : 89840309318661406033549272954354923472 (0x43969D3BC053D27E0C472C274BB1F7D0)
    Полное имя : L:\Раздачи\Сорочинская ярмарка\Сорочинская ярмарка.mkv
    Формат : Matroska
    Версия формата : Version 4 / Version 2
    Размер файла : 2,07 Гбайт
    Продолжительность : 1 ч. 43 м.
    Общий поток : 2849 Кбит/сек
    Программа кодирования : XviD4PSP 7.0 / 56.15.102
    Библиотека кодирования : XviD4PSP 7.0 / 56.15.102
    COMMENT : DVD > MKV / MPEG2 > X264 CRF-2P 22.0 Custom-1 / AC3 > COPY
    Видео
    Идентификатор : 1
    Формат : AVC
    Формат/Информация : Advanced Video Codec
    Профиль формата : High@L4.1
    Параметр CABAC формата : Да
    Параметр ReFrames формата : 9 кадров
    Идентификатор кодека : V_MPEG4/ISO/AVC
    Продолжительность : 1 ч. 43 м.
    Битрейт : 2462 Кбит/сек
    Ширина : 700 пикселей
    Высота : 460 пикселей
    Соотношение сторон : 16:10
    Соотношение сторон в оригинале : 16:10
    Режим частоты кадров : Постоянный
    Частота кадров : 25,000 кадров/сек
    Цветовое пространство : YUV
    Субдискретизация насыщенности : 4:2:0
    Битовая глубина : 8 бит
    Тип развёртки : Прогрессивная
    Бит/(Пиксели*Кадры) : 0.306
    Размер потока : 1,75 Гбайт (85%)
    Библиотека кодирования : x264 core 146 r2538M 121396c
    Настройки программы : cabac=1 / ref=9 / deblock=1:0:0 / analyse=0x3:0x133 / me=umh / subme=11 / psy=1 / psy_rd=1.05:0.10 / mixed_ref=1 / me_range=24 / chroma_me=1 / trellis=2 / 8x8dct=1 / cqm=0 / deadzone=21,11 / fast_pskip=0 / chroma_qp_offset=-3 / threads=6 / lookahead_threads=1 / sliced_threads=0 / nr=0 / decimate=1 / interlaced=0 / bluray_compat=0 / constrained_intra=0 / bframes=6 / b_pyramid=2 / b_adapt=2 / b_bias=0 / direct=3 / weightb=1 / open_gop=0 / weightp=2 / keyint=250 / keyint_min=25 / scenecut=40 / intra_refresh=0 / rc_lookahead=250 / rc=2pass / mbtree=1 / bitrate=2462 / ratetol=1.0 / qcomp=0.70 / qpmin=3 / qpmax=69 / qpstep=4 / cplxblur=20.0 / qblur=0.5 / ip_ratio=1.40 / aq=2:1.00
    Default : Да
    Forced : Нет
    Аудио
    Идентификатор : 2
    Формат : AC-3
    Формат/Информация : Audio Coding 3
    Расширение режима : CM (complete main)
    Параметр Endianness формата : Big
    Идентификатор кодека : A_AC3
    Продолжительность : 1 ч. 43 м.
    Вид битрейта : Постоянный
    Битрейт : 384 Кбит/сек
    Каналы : 6 каналов
    Расположение каналов : Front: L C R, Side: L R, LFE
    Частота : 48,0 КГц
    Битовая глубина : 16 бит
    Метод сжатия : С потерями
    Задержка видео : 16 мс.
    Размер потока : 285 Мбайт (13%)
    Язык : Russian
    Default : Да
    Forced : Нет
    Меню
    00:00:00.000 : :Chapter 1
    00:00:00.090 : :Chapter 2
    00:05:19.830 : :Chapter 3
    00:08:00.211 : :Chapter 4
    00:12:34.711 : :Chapter 5
    00:16:40.134 : :Chapter 6
    00:22:55.808 : :Chapter 7
    00:28:40.631 : :Chapter 8
    00:32:52.122 : :Chapter 9
    00:38:38.627 : :Chapter 10
    00:42:38.192 : :Chapter 11
    00:51:28.989 : :Chapter 12
    00:59:48.846 : :Chapter 13
    01:05:51.693 : :Chapter 14
    01:13:01.318 : :Chapter 15
    01:24:16.335 : :Chapter 16
    01:28:17.973 : :Chapter 17
    01:36:42.726 : :Chapter 18
    01:41:24.467 : :Chapter 19
    01:43:49.908 : :Chapter 20

    Скриншот c названием фильма

    Скриншоты





    Скачать .torrent

    Скачать торрент-файл бесплатно и на максимальной скорости!

    Как скачивать? · Что такое торрент? · Рейтинг и ограничения

    !ВНИМАНИЕ!
    Сайт не распространяет и не хранит электронные версии произведений, а занимается лишь лишь предоставлением доступа к создаваемому пользователями каталогу ссылок на торрент-файлы, которые содержат только списки хеш-сумм, убедительная просьба с жалобами обращаться напрямую к пользователю. Файлы для обмена на трекере предоставлены пользователями сайта, и администрация не несёт ответственности за их содержание. Просьба не заливать файлы, защищенные авторскими правами, а также файлы нелегального содержания!


    _________________
    [Профиль] [ЛС]
    Показать сообщения:    
    Ответить на тему

    Текущее время: Сегодня, в 21:59

    Часовой пояс: GMT + 2



    Вы не можете начинать темы
    Вы не можете отвечать на сообщения
    Вы не можете редактировать свои сообщения
    Вы не можете удалять свои сообщения
    Вы не можете голосовать в опросах
    Вы не можете прикреплять файлы к сообщениям
    Вы не можете скачивать файлы