BitTorrentTracker PerecTracker.org
BitTorrentTracker PerecTracker.org
    
Регистрация  ·  Вход
 
 · 
Забыли пароль?

  • Кавказская пленница! (Максим Воронков) [2014, Комедия, мелодрама, приключения, семейный, ремейк, WEB-DLRip]

    Ответить на тему
     
    Автор Сообщение

    rechyn

    Создавать темы 11-Апр-2015 19:36

           

    [Цитировать]

    Кавказская пленница!
    Жанр: Комедия, мелодрама, приключения, семейный, ремейк
    Год выпуска: 2014
    Продолжительность: 01:35:34
    Режиссёр: Максим Воронков
    В ролях: Дмитрий Шаракоис, Анастасия Задорожная, Геннадий Хазанов, Арарат Кещян, Семён Стругачев, Сергей Степанченко, Николай Добрынин, Михаил Ефремов, Юлий Гусман, Лариса Удовиченко
    Описание: Журналист Шурик приезжает на Кавказ, чтобы снять репортаж о местных красотах и традициях, и попадает в Горск, вотчину местного мэра города Георгия Гаджиевича Саахова. Тот, поддерживая моду, заданную губернатором, задумал жениться на молоденькой красавице, спортсменке и даже экстремалке Нине, которая так понравилась Шурику. Используя незадачливого журналиста, Саахов и его подручные похищают Нину. Но, поняв, что его разыграли, Шурик бросается спасать любимую девушку...

    Качество видео: WEB-DLRip [Исходник: WEB-DL (720p) | iTunes]
    Формат видео: AVI
    Видео: XviD, 656x272 (2.40:1), 952 Кбит/с, 24 кадр/с
    Аудио: Русский, MP3, 48000 Гц, 128 Кбит/с, 2 канала (Стерео)

    Автор рипа - ivandubskoj

    MediaInfo

    General
    Complete name : Kavkazskaya.plennitsa.2014.WEB-DLRip.745MB.avi
    Format : AVI
    Format/Info : Audio Video Interleave
    File size : 745 MiB
    Duration : 1h 35mn
    Overall bit rate : 1 089 Kbps
    Writing application : VirtualDubMod 1.5.10.3 | www.virtualdub-fr.org || (build 2550/release)
    Writing library : VirtualDubMod build 2550/release
    Copyright : rip by ivandubskoj
    Video
    ID : 0
    Format : MPEG-4 Visual
    Format profile : Advanced Simple@L5
    Format settings, BVOP : 2
    Format settings, QPel : No
    Format settings, GMC : No warppoints
    Format settings, Matrix : Custom
    Codec ID : XVID
    Codec ID/Hint : XviD
    Duration : 1h 35mn
    Bit rate : 952 Kbps
    Width : 656 pixels
    Height : 272 pixels
    Display aspect ratio : 2.40:1
    Frame rate : 24.000 fps
    Color space : YUV
    Chroma subsampling : 4:2:0
    Bit depth : 8 bits
    Scan type : Progressive
    Compression mode : Lossy
    Bits/(Pixel*Frame) : 0.222
    Stream size : 651 MiB (87%)
    Writing library : XviD 73
    Audio
    ID : 1
    Format : MPEG Audio
    Format version : Version 1
    Format profile : Layer 3
    Codec ID : 55
    Codec ID/Hint : MP3
    Duration : 1h 35mn
    Bit rate mode : Constant
    Bit rate : 128 Kbps
    Channel(s) : 2 channels
    Sampling rate : 48.0 KHz
    Compression mode : Lossy
    Stream size : 87.5 MiB (12%)
    Alignment : Aligned on interleaves
    Interleave, duration : 42 ms (1.00 video frame)
    Interleave, preload duration : 504 ms
    Writing library : LAME3.99r
    Encoding settings : -m s -V 4 -q 0 -lowpass 17 -b 128

    Скриншот c названием фильма

    Скриншоты

    Скачать .torrent

    Скачать торрент-файл бесплатно и на максимальной скорости!

    Как скачивать? · Что такое торрент? · Рейтинг и ограничения

    !ВНИМАНИЕ!
    Сайт не распространяет и не хранит электронные версии произведений, а занимается лишь лишь предоставлением доступа к создаваемому пользователями каталогу ссылок на торрент-файлы, которые содержат только списки хеш-сумм, убедительная просьба с жалобами обращаться напрямую к пользователю. Файлы для обмена на трекере предоставлены пользователями сайта, и администрация не несёт ответственности за их содержание. Просьба не заливать файлы, защищенные авторскими правами, а также файлы нелегального содержания!


    _________________
    [Профиль] [ЛС]
    Показать сообщения:    
    Ответить на тему

    Текущее время: Сегодня, в 20:42

    Часовой пояс: GMT + 2



    Вы не можете начинать темы
    Вы не можете отвечать на сообщения
    Вы не можете редактировать свои сообщения
    Вы не можете удалять свои сообщения
    Вы не можете голосовать в опросах
    Вы не можете прикреплять файлы к сообщениям
    Вы не можете скачивать файлы