BitTorrentTracker PerecTracker.org
BitTorrentTracker PerecTracker.org
    
Регистрация  ·  Вход
 
 · 
Забыли пароль?

  • Осколки хрустальной туфельки (Станислав Митин) [2015, Россия, Мелодрама, HDTVRip]

    Ответить на тему
     
    Автор Сообщение

    rechyn

    Создавать темы 11-Апр-2015 19:35

           

    [Цитировать]

    Осколки хрустальной туфельки
    Год выпуска: 2015
    Производство: Россия, кинокомпания "Русское"
    Жанр: Мелодрама
    Продолжительность: 01:31:26
    Субтитры: нет
    Режиссёр:Станислав Митин
    В ролях: Евгений Вальц, Алина Кизиярова, Анна Тараторкина, Светлана Немоляева, Евгений Сахаров (II), Ольга Хохлова, Павел Любимцев, Виталия Корниенко
    Описание: В стареньком пальтишке с картонным чемоданом приезжает фельдшер Юля покорять столицу. Тетя Валя устраивает племянницу сиделкой с проживанием к Алле Николаевне – обеспеченной и капризной старушке, перенесшей инсульт. Проходит немного времени, и Алла Николаевна уже души не чает в своей сиделке, а ее сын Павел почти влюблен в Юлю. Только жена Павла, Лена, не верит в "доброго ангела". И, кажется, она права…

    Качество: HDTVRip
    Контейнер: AVI
    Видео: 720x400 (1.80:1), 25 fps, XviD build 73 ~1944 kbps avg, 0.270 bit/pixel
    Аудио: 48 kHz, AC3 Dolby Digital, 2/0 (L,R) ch, ~192 kbps
    Сторонней рекламы нет!

    MI

    GeneralComplete name : D:\Vytas\Video\Oskolki.Hrustalnoy.Tufelki.2015.HDTVRip.Files-x.aviFormat : AVIFormat/Info : Audio Video InterleaveFile size : 1.37 GiBDuration : 1h 31mnOverall bit rate : 2 146 KbpsWriting application : VirtualDubMod 1.5.10.3 | www.virtualdub-fr.org || (build 2550/release)Writing library : VirtualDubMod build 2550/release
    VideoID : 0Format : MPEG-4 VisualFormat profile : Advanced Simple@L5Format settings, BVOP : 1Format settings, QPel : NoFormat settings, GMC : No warppointsFormat settings, Matrix : CustomCodec ID : XVIDCodec ID/Hint : XviDDuration : 1h 31mnBit rate : 1 944 KbpsWidth : 720 pixelsHeight : 400 pixelsDisplay aspect ratio : 16:9Frame rate : 25.000 fpsColor space : YUVChroma subsampling : 4:2:0Bit depth : 8 bitsScan type : ProgressiveCompression mode : LossyBits/(Pixel*Frame) : 0.270Stream size : 1.24 GiB (91%)Writing library : XviD 73
    AudioID : 1Format : AC-3Format/Info : Audio Coding 3Mode extension : CM (complete main)Format settings, Endianness : BigCodec ID : 2000Duration : 1h 31mnBit rate mode : ConstantBit rate : 192 KbpsChannel(s) : 2 channelsChannel positions : Front: L RSampling rate : 48.0 KHzBit depth : 16 bitsCompression mode : LossyStream size : 125 MiB (9%)Alignment : Split accross interleavesInterleave, duration : 40 ms (1.00 video frame)Interleave, preload duratio : 500 ms
    Раздача группы:
    Рип:
    Оформление:

    Скриншоты

    Скриншот с названием фильма

    Скачать .torrent

    Скачать торрент-файл бесплатно и на максимальной скорости!

    Как скачивать? · Что такое торрент? · Рейтинг и ограничения

    !ВНИМАНИЕ!
    Сайт не распространяет и не хранит электронные версии произведений, а занимается лишь лишь предоставлением доступа к создаваемому пользователями каталогу ссылок на торрент-файлы, которые содержат только списки хеш-сумм, убедительная просьба с жалобами обращаться напрямую к пользователю. Файлы для обмена на трекере предоставлены пользователями сайта, и администрация не несёт ответственности за их содержание. Просьба не заливать файлы, защищенные авторскими правами, а также файлы нелегального содержания!


    _________________
    [Профиль] [ЛС]
    Показать сообщения:    
    Ответить на тему

    Текущее время: Сегодня, в 20:23

    Часовой пояс: GMT + 2



    Вы не можете начинать темы
    Вы не можете отвечать на сообщения
    Вы не можете редактировать свои сообщения
    Вы не можете удалять свои сообщения
    Вы не можете голосовать в опросах
    Вы не можете прикреплять файлы к сообщениям
    Вы не можете скачивать файлы