Register  ·  Log in
Forgot password?

  • Осколки хрустальной туфельки (Станислав Митин) [2015, Россия, Мелодрама, HDTVRip]

    Reply to topic
    Author Message


    Post 11-Apr-2015 20:35



    Осколки хрустальной туфельки
    Год выпуска: 2015
    Производство: Россия, кинокомпания "Русское"
    Жанр: Мелодрама
    Продолжительность: 01:31:26
    Субтитры: нет
    Режиссёр:Станислав Митин
    В ролях: Евгений Вальц, Алина Кизиярова, Анна Тараторкина, Светлана Немоляева, Евгений Сахаров (II), Ольга Хохлова, Павел Любимцев, Виталия Корниенко
    Описание: В стареньком пальтишке с картонным чемоданом приезжает фельдшер Юля покорять столицу. Тетя Валя устраивает племянницу сиделкой с проживанием к Алле Николаевне – обеспеченной и капризной старушке, перенесшей инсульт. Проходит немного времени, и Алла Николаевна уже души не чает в своей сиделке, а ее сын Павел почти влюблен в Юлю. Только жена Павла, Лена, не верит в "доброго ангела". И, кажется, она права…

    Качество: HDTVRip
    Контейнер: AVI
    Видео: 720x400 (1.80:1), 25 fps, XviD build 73 ~1944 kbps avg, 0.270 bit/pixel
    Аудио: 48 kHz, AC3 Dolby Digital, 2/0 (L,R) ch, ~192 kbps
    Сторонней рекламы нет!


    GeneralComplete name : D:\Vytas\Video\Oskolki.Hrustalnoy.Tufelki.2015.HDTVRip.Files-x.aviFormat : AVIFormat/Info : Audio Video InterleaveFile size : 1.37 GiBDuration : 1h 31mnOverall bit rate : 2 146 KbpsWriting application : VirtualDubMod | || (build 2550/release)Writing library : VirtualDubMod build 2550/release
    VideoID : 0Format : MPEG-4 VisualFormat profile : Advanced Simple@L5Format settings, BVOP : 1Format settings, QPel : NoFormat settings, GMC : No warppointsFormat settings, Matrix : CustomCodec ID : XVIDCodec ID/Hint : XviDDuration : 1h 31mnBit rate : 1 944 KbpsWidth : 720 pixelsHeight : 400 pixelsDisplay aspect ratio : 16:9Frame rate : 25.000 fpsColor space : YUVChroma subsampling : 4:2:0Bit depth : 8 bitsScan type : ProgressiveCompression mode : LossyBits/(Pixel*Frame) : 0.270Stream size : 1.24 GiB (91%)Writing library : XviD 73
    AudioID : 1Format : AC-3Format/Info : Audio Coding 3Mode extension : CM (complete main)Format settings, Endianness : BigCodec ID : 2000Duration : 1h 31mnBit rate mode : ConstantBit rate : 192 KbpsChannel(s) : 2 channelsChannel positions : Front: L RSampling rate : 48.0 KHzBit depth : 16 bitsCompression mode : LossyStream size : 125 MiB (9%)Alignment : Split accross interleavesInterleave, duration : 40 ms (1.00 video frame)Interleave, preload duratio : 500 ms
    Раздача группы:


    Скриншот с названием фильма

    Download .torrent

    Download free and at maximum speed!

    How to Download? · What is a torrent? · Ratings and Limitations

    The site does not extend and does not store electronic(digital) versions of products, and only gives access to a reference catalogue created by users on torrent-files which contain only lists of the hash-sums, the earnest entreaty, with complaints(abuse) to access directly to the user. Files for an exchange on tracker are given by users of a site, and the administration does not bear the responsibility for their maintenance. The request to not fill in the files protected by copyrights, and also files of the illegal maintenance!

    [Profile] [PM]
    Display posts from previous:    
    Reply to topic

    The time now is: Today 10:34

    All times are GMT + 3 Hours

    You cannot post new topics in this forum
    You cannot reply to topics in this forum
    You cannot edit your posts in this forum
    You cannot delete your posts in this forum
    You cannot vote in polls in this forum
    You cannot attach files in this forum
    You cannot download files in this forum