Register  ·  Log in
Forgot password?

  • Осколки хрустальной туфельки (Станислав Митин) [2015, Мелодрама, драма, HDTVRip]

    Reply to topic
    Author Message


    Post 11-Apr-2015 20:35



    Осколки хрустальной туфельки
    Жанр: Мелодрама, драма
    Выпущено: Россия, Кинокомпания "Русское", Студия "Олимп"
    Год выпуска: 2015
    Продолжительность: 01:31:19
    Режиссёр: Станислав Митин
    В ролях: Евгений Вальц, Алина Кизиярова, Анна Тараторкина, Светлана Немоляева, Евгений Сахаров, Ольга Хохлова, Павел Любимцев, Александр Никольский, Виталия Корниенко
    Описание: В стареньком пальтишке с картонным чемоданом приезжает фельдшер Юля покорять столицу. Тетя Валя устраивает племянницу сиделкой с проживанием к Алле Николаевне – обеспеченной и капризной старушке, перенесшей инсульт. Проходит немного времени, и Алла Николаевна уже души не чает в своей сиделке, а ее сын Павел почти влюблен в Юлю. Только жена Павла, Лена, не верит в "доброго ангела". И, кажется, она права...

    Качество видео: HDTVRip [Исходник: HDTV (1080i)]
    Формат видео: AVI
    Видео: XviD, 656x368 (16:9), 1003 Кбит/с, 25 кадр/с
    Аудио: Русский, MP3, 48000 Гц, 128 Кбит/с, 2 канала (Стерео)

    Автор рипа - ivandubskoj


    Complete name : Oskolki.hrustalnoy.tufel'ki.2015.HDTVRip.745MB.avi
    Format : AVI
    Format/Info : Audio Video Interleave
    File size : 745 MiB
    Duration : 1h 31mn
    Overall bit rate : 1 141 Kbps
    Writing application : VirtualDubMod | || (build 2550/release)
    Writing library : VirtualDubMod build 2550/release
    Copyright : rip by ivandubskoj
    ID : 0
    Format : MPEG-4 Visual
    Format profile : Advanced Simple@L5
    Format settings, BVOP : 2
    Format settings, QPel : No
    Format settings, GMC : No warppoints
    Format settings, Matrix : Custom
    Codec ID : XVID
    Codec ID/Hint : XviD
    Duration : 1h 31mn
    Bit rate : 1 003 Kbps
    Width : 656 pixels
    Height : 368 pixels
    Display aspect ratio : 16:9
    Frame rate : 25.000 fps
    Color space : YUV
    Chroma subsampling : 4:2:0
    Bit depth : 8 bits
    Scan type : Progressive
    Compression mode : Lossy
    Bits/(Pixel*Frame) : 0.166
    Stream size : 655 MiB (88%)
    Writing library : XviD 73
    ID : 1
    Format : MPEG Audio
    Format version : Version 1
    Format profile : Layer 3
    Codec ID : 55
    Codec ID/Hint : MP3
    Duration : 1h 31mn
    Bit rate mode : Constant
    Bit rate : 128 Kbps
    Channel(s) : 2 channels
    Sampling rate : 48.0 KHz
    Compression mode : Lossy
    Stream size : 83.6 MiB (11%)
    Alignment : Aligned on interleaves
    Interleave, duration : 40 ms (1.00 video frame)
    Interleave, preload duration : 504 ms
    Writing library : LAME3.99r
    Encoding settings : -m s -V 4 -q 0 -lowpass 17 -b 128

    Скриншот c названием фильма


    Download .torrent

    Download free and at maximum speed!

    How to Download? · What is a torrent? · Ratings and Limitations

    The site does not extend and does not store electronic(digital) versions of products, and only gives access to a reference catalogue created by users on torrent-files which contain only lists of the hash-sums, the earnest entreaty, with complaints(abuse) to access directly to the user. Files for an exchange on tracker are given by users of a site, and the administration does not bear the responsibility for their maintenance. The request to not fill in the files protected by copyrights, and also files of the illegal maintenance!

    [Profile] [PM]
    Display posts from previous:    
    Reply to topic

    The time now is: Today 17:32

    All times are GMT + 3 Hours

    You cannot post new topics in this forum
    You cannot reply to topics in this forum
    You cannot edit your posts in this forum
    You cannot delete your posts in this forum
    You cannot vote in polls in this forum
    You cannot attach files in this forum
    You cannot download files in this forum