BitTorrentTracker PerecTracker.org
BitTorrentTracker PerecTracker.org
    
Регистрация  ·  Вход
 
 · 
Забыли пароль?

  • Хичкок / Hitchcock (Саша Джерваси) [2012 г., Драма, История, Биография, BDRip-AVC]

    Ответить на тему
     
    Автор Сообщение

    Columb

    Создавать темы 25-Мар-2013 18:36

           

    [Цитировать]

    Хичкок / Hitchcock-Cлоган: «История о фильме, который потряс мир»Год выпуска: 2012
    Страна: США / Cold Spring Pictures, Fox Searchlight Pictures, The Montecito Picture Company
    Жанр: Драма, История, Биография
    Продолжительность: 01:38:20
    Перевод: Профессиональный (полное дублирование) [Лицензия]
    Субтитры: русские
    Режиссер: Саша Джерваси


    В ролях: Майкл Стулбарг, Энтони Хопкинс, Хелен Миррен, Скарлетт Йоханссон, Тони Коллетт, Дэнни Хьюстон, Джессика Бил, Майкл Уинкотт, Джеймс Д’Арси, Ричард Портноу
    Описание: Известный режиссер отваживается на эксперимент: отойти от ставших его визитной карточкой дорогостоящих фильмов в жанре «саспенс» и снять скромную, к тому же черно-белую картину «Психо». В процессе работы будущий «мастер страха» вглядывается в темные бездны человеческой души, чтобы найти те нервные окончания, прикасаясь к которым он мог бы, как по клавишам, сыграть на эмоциях зрителя настоящую симфонию ужаса.
    Качество: BDRip-AVC
    Формат: MKV
    Видео кодек: H.264
    Аудио кодек: AC3
    Видео: MPEG-4 AVC/H.264 1024x436 ~1738 Кбит/сек
    Аудио: AC3 5.1 384 Кбит/сек

    MediaInfo

    Общее
    Уникальный идентификатор : 216957383666740929729205148769961687172 (0xA33878E12DFD00F4BA662F0D6A10B884)
    Полное имя : H:Hichkok.2012.D.x264.BDRip-MysTeRy.mkv
    Формат : Matroska
    Версия формата : Version 4 / Version 2
    Размер файла : 1,46 Гбайт
    Продолжительность : 1 ч. 38 м.
    Общий поток : 2124 Кбит/сек
    Название фильма : Hichkok.2012.D.x264.BDRip-MysTeRy
    Дата кодирования : UTC 2013-03-24 17:18:17
    Программа кодирования : mkvmerge v6.1.0 ('Old Devil') built on Mar 2 2013 14:32:37
    Библиотека кодирования : libebml v1.3.0 + libmatroska v1.4.0
    Видео
    Идентификатор : 1
    Формат : AVC
    Формат/Информация : Advanced Video Codec
    Профиль формата : High@L4.1
    Параметр CABAC формата : Да
    Параметр ReFrames формата : 12 кадров
    Идентификатор кодека : V_MPEG4/ISO/AVC
    Продолжительность : 1 ч. 38 м.
    Битрейт : 1738 Кбит/сек
    Ширина : 1024 пикселя
    Высота : 436 пикселей
    Соотношение сторон : 2,35:1
    Частота кадров : 23,976 кадра/сек
    Цветовое пространство : YUV
    Субдискретизация насыщенности : 4:2:0
    Битовая глубина : 8 бит
    Тип развёртки : Прогрессивная
    Бит/(Пиксели*Кадры) : 0.162
    Размер потока : 1,17 Гбайт (80%)
    Заголовок : ENCODER........: MysTeRy
    Библиотека кодирования : x264 core 130 r2273 b3065e6
    Настройки программы : cabac=1 / ref=12 / deblock=1:-3:-3 / analyse=0x3:0x133 / me=umh / subme=10 / psy=1 / psy_rd=1.00:0.10 / mixed_ref=1 / me_range=32 / chroma_me=1 / trellis=2 / 8x8dct=1 / cqm=0 / deadzone=21,11 / fast_pskip=0 / chroma_qp_offset=-3 / threads=12 / lookahead_threads=2 / sliced_threads=0 / nr=0 / decimate=0 / interlaced=0 / bluray_compat=0 / constrained_intra=0 / bframes=8 / b_pyramid=2 / b_adapt=2 / b_bias=0 / direct=3 / weightb=1 / open_gop=0 / weightp=2 / keyint=250 / keyint_min=23 / scenecut=40 / intra_refresh=0 / rc_lookahead=60 / rc=2pass / mbtree=0 / bitrate=1738 / ratetol=1.0 / qcomp=0.70 / qpmin=0 / qpmax=69 / qpstep=4 / cplxblur=20.0 / qblur=0.5 / vbv_maxrate=50000 / vbv_bufsize=61400 / nal_hrd=none / ip_ratio=1.40 / pb_ratio=1.30 / aq=2:0.80
    Язык : English
    Default : Да
    Forced : Нет
    Основные цвета : BT.709-5, BT.1361, IEC 61966-2-4, SMPTE RP177
    Характеристики трансфера : BT.709-5, BT.1361
    Коэффициенты матрицы : BT.709-5, BT.1361, IEC 61966-2-4 709, SMPTE RP177
    Аудио
    Идентификатор : 2
    Формат : AC-3
    Формат/Информация : Audio Coding 3
    Расширение режима : CM (complete main)
    Идентификатор кодека : A_AC3
    Продолжительность : 1 ч. 38 м.
    Вид битрейта : Постоянный
    Битрейт : 384 Кбит/сек
    Каналы : 6 каналов
    Расположение каналов : Front: L C R, Side: L R, LFE
    Частота : 48,0 КГц
    Битовая глубина : 16 бит
    Метод сжатия : С потерями
    Размер потока : 270 Мбайт (18%)
    Заголовок : Dub
    Язык : Russian
    Default : Да
    Forced : Нет
    Текст #1
    Идентификатор : 3
    Формат : UTF-8
    Идентификатор кодека : S_TEXT/UTF8
    Идентификатор кодека/Информация : UTF-8 Plain Text
    Язык : Russian
    Default : Нет
    Forced : Нет
    Текст #2
    Идентификатор : 4
    Формат : UTF-8
    Идентификатор кодека : S_TEXT/UTF8
    Идентификатор кодека/Информация : UTF-8 Plain Text
    Заголовок : jerichOne
    Язык : Russian
    Default : Нет
    Forced : Нет
    Текст #3
    Идентификатор : 5
    Формат : UTF-8
    Идентификатор кодека : S_TEXT/UTF8
    Идентификатор кодека/Информация : UTF-8 Plain Text
    Язык : Ukrainian
    Default : Нет
    Forced : Нет
    Текст #4
    Идентификатор : 6
    Формат : UTF-8
    Идентификатор кодека : S_TEXT/UTF8
    Идентификатор кодека/Информация : UTF-8 Plain Text
    Язык : English
    Default : Нет
    Forced : Нет
    Меню
    00:00:00.000 : en:00:00:00.000
    00:02:26.730 : en:00:02:26.730
    00:05:17.108 : en:00:05:17.108
    00:08:41.146 : en:00:08:41.146
    00:12:26.162 : en:00:12:26.162
    00:14:41.380 : en:00:14:41.380
    00:19:07.396 : en:00:19:07.396
    00:20:56.839 : en:00:20:56.839
    00:23:48.677 : en:00:23:48.677
    00:25:14.221 : en:00:25:14.221
    00:27:13.423 : en:00:27:13.423
    00:31:10.452 : en:00:31:10.452
    00:32:15.809 : en:00:32:15.809
    00:34:21.726 : en:00:34:21.726
    00:37:30.123 : en:00:37:30.123
    00:39:06.553 : en:00:39:06.553
    00:43:22.975 : en:00:43:22.975
    00:45:50.998 : en:00:45:50.998
    00:49:19.498 : en:00:49:19.498
    00:52:54.797 : en:00:52:54.797
    00:58:12.072 : en:00:58:12.072
    01:00:32.838 : en:01:00:32.838
    01:03:56.458 : en:01:03:56.458
    01:10:03.866 : en:01:10:03.866
    01:15:35.114 : en:01:15:35.114
    01:19:40.818 : en:01:19:40.818
    01:22:38.495 : en:01:22:38.495
    01:23:54.238 : en:01:23:54.238
    01:25:57.069 : en:01:25:57.069
    01:28:13.413 : en:01:28:13.413
    01:29:46.131 : en:01:29:46.131
    01:31:38.493 : en:01:31:38.493

    x264 log

    x264 [info]: frame I:1160 Avg QP:13.51 size: 66496
    x264 [info]: frame P:31024 Avg QP:16.44 size: 20069
    x264 [info]: frame B:109296 Avg QP:18.44 size: 5323
    x264 [info]: consecutive B-frames: 1.9% 2.5% 8.0% 25.2% 15.6% 39.8% 4.2% 1.5% 1.3%

    Скриншоты




    Скачать .torrent

    Скачать торрент-файл бесплатно и на максимальной скорости!

    Как скачивать? · Что такое торрент? · Рейтинг и ограничения

    !ВНИМАНИЕ!
    Сайт не распространяет и не хранит электронные версии произведений, а занимается лишь лишь предоставлением доступа к создаваемому пользователями каталогу ссылок на торрент-файлы, которые содержат только списки хеш-сумм, убедительная просьба с жалобами обращаться напрямую к пользователю. Файлы для обмена на трекере предоставлены пользователями сайта, и администрация не несёт ответственности за их содержание. Просьба не заливать файлы, защищенные авторскими правами, а также файлы нелегального содержания!

    [Профиль] [ЛС]
    Показать сообщения:    
    Ответить на тему

    Текущее время: Сегодня, в 04:20

    Часовой пояс: GMT + 2



    Вы не можете начинать темы
    Вы не можете отвечать на сообщения
    Вы не можете редактировать свои сообщения
    Вы не можете удалять свои сообщения
    Вы не можете голосовать в опросах
    Вы не можете прикреплять файлы к сообщениям
    Вы не можете скачивать файлы