BitTorrentTracker PerecTracker.org
BitTorrentTracker PerecTracker.org
    
Регистрация  ·  Вход
 
 · 
Забыли пароль?

  • Всё и сразу (Роман Каримов) [2013, комедия, криминал, HDTVRip]

    Ответить на тему
     
    Автор Сообщение

    rechyn

    Создавать темы 11-Апр-2015 19:35

           

    [Цитировать]

    Всё и сразу
    Страна: Россия
    Жанр: комедия, криминал
    Год выпуска: 2013
    Продолжительность: 01:30:52
    Режиссёр: Роман Каримов
    В ролях: Никита Ост, Антон Шурцов, Александр Паль, Юлия Хлынина, Артем Костюнёв, Андрей Муравьёв, Александр Шаляпин, Андрей Галактионов,Игорь Тарасевич, Ольга Возовая
    Описание: Тима и Дэн — друзья-неудачники из провинциального городка. Учеба позади, работать не тянет, девушек нет. На пути к мечте (выбиться в люди) и в надежде получить всё и сразу (без особого напряга) парни берутся выполнить задание местного бандюка и отправляются на дело, прихватив с собой автослесаря Жору, такого же полного лузера.
    На кону внушительная сумма, главное — не облажаться и чётко инсценировать ограбление своего же, подставного наркокурьера. Но вот засада: роль курьера случайно достаётся честному дембелю Ване, который оказывается не в курсе схем и обещаний. И теперь в водовороте погонь, потасовок и перестрелок всем четверым нужно по-настоящему напрячься, чтобы грамотно разрулить ситуацию. И получить ВСЁ и СРАЗУ.
    Сэмпл: http://rusfolder.com/43429390

    Качество видео: HDTVRip [Исходник 1080i]
    Формат видео: AVI
    Видео: 720x400 (1.80:1), 25 fps, XviD build 50 ~2102kbps avg, 0.24 bit/pixel
    Аудио: 48 kHz, AC3 Dolby Digital, 2/0 (L,R) ch, ~192 kbps

    MediaInfo

    Общее
    Полное имя : C:\Documents and Settings\User\Мои документы\Всё и сразу.avi
    Формат : AVI
    Формат/Информация : Audio Video Interleave
    Размер файла : 1,46 Гбайт
    Продолжительность : 1 ч. 30 м.
    Общий поток : 2303 Кбит/сек
    Программа кодирования : VirtualDubMod 1.5.10.2 (build 2540/release)
    Библиотека кодирования : VirtualDubMod build 2540/release
    Видео
    Идентификатор : 0
    Формат : MPEG-4 Visual
    Профиль формата : Advanced Simple@L5
    Параметр BVOP формата : 1
    Параметр QPel формата : Нет
    Параметр GMC формата : Без точки перехода
    Параметр матрицы формата : Default (MPEG)
    Идентификатор кодека : XVID
    Идентификатор кодека/Подсказка : XviD
    Продолжительность : 1 ч. 30 м.
    Битрейт : 2102 Кбит/сек
    Ширина : 720 пикселей
    Высота : 400 пикселей
    Соотношение сторон : 16:9
    Частота кадров : 25,000 кадров/сек
    Цветовое пространство : YUV
    Субдискретизация насыщенности : 4:2:0
    Битовая глубина : 8 бит
    Тип развёртки : Прогрессивная
    Метод сжатия : С потерями
    Бит/(Пиксели*Кадры) : 0.240
    Размер потока : 1,33 Гбайт (91%)
    Библиотека кодирования : XviD 1.2.1 (UTC 2008-12-04)
    Аудио
    Идентификатор : 1
    Формат : AC-3
    Формат/Информация : Audio Coding 3
    Расширение режима : CM (complete main)
    Параметр Endianness формата : Big
    Идентификатор кодека : 2000
    Продолжительность : 1 ч. 30 м.
    Вид битрейта : Постоянный
    Битрейт : 192 Кбит/сек
    Каналы : 2 канала
    Расположение каналов : Front: L R
    Частота : 48,0 КГц
    Битовая глубина : 16 бит
    Метод сжатия : С потерями
    Размер потока : 125 Мбайт (8%)
    Выравнивание : Разделение по промежуткам
    Продолжительность промежутка : 40 мс. (1,00 видеокадр)
    Время предзагрузки промежутка : 500 мс.

    Скриншот c названием фильма

    Скриншоты

    Скачать .torrent

    Скачать торрент-файл бесплатно и на максимальной скорости!

    Как скачивать? · Что такое торрент? · Рейтинг и ограничения

    !ВНИМАНИЕ!
    Сайт не распространяет и не хранит электронные версии произведений, а занимается лишь лишь предоставлением доступа к создаваемому пользователями каталогу ссылок на торрент-файлы, которые содержат только списки хеш-сумм, убедительная просьба с жалобами обращаться напрямую к пользователю. Файлы для обмена на трекере предоставлены пользователями сайта, и администрация не несёт ответственности за их содержание. Просьба не заливать файлы, защищенные авторскими правами, а также файлы нелегального содержания!


    _________________
    [Профиль] [ЛС]
    Показать сообщения:    
    Ответить на тему

    Текущее время: Сегодня, в 11:04

    Часовой пояс: GMT + 2



    Вы не можете начинать темы
    Вы не можете отвечать на сообщения
    Вы не можете редактировать свои сообщения
    Вы не можете удалять свои сообщения
    Вы не можете голосовать в опросах
    Вы не можете прикреплять файлы к сообщениям
    Вы не можете скачивать файлы