Register  ·  Log in
Forgot password?

  • Путешествие в счастливую Аравию / Дорога в ад (Валерий Наумов) [1993, Криминальная драма, SATRip]

    Reply to topic
    Author Message


    Post 11-Apr-2015 20:35



    Путешествие в счастливую Аравию / Дорога в ад
    Жанр: Криминальная драма
    Год выпуска: 1993
    Продолжительность: 1:18:25
    Режиссёр: Валерий Наумов
    В ролях: Валерия Лиходей, Александр Лыков, Виктор Смирнов, Леонид Лейкин, Вадим Лобанов, Валерий Кравченко, Валерий Миронов, Виктор Хозяинов, Андрей Ургант, Филипп Школьник, Юлия Яковлева
    Описание: В расстроенных чувствах после неудачной пробы актер "голосует попутку", за рулем которой симпатичная молодая женщина. Неожиданно они становятся заложниками бандитов, стремящихся выбраться из города с полученным в аэропорту грузом...
    Качество видео: SATRip
    Формат видео: AVI
    Видео: XviD MPEG-4 , 704x528 (1.33:1) , 25 fps , 2307 Kbps
    Аудио: AC3 , 48 kHz , 192.00 kbps avg , 2/0 (L,R) ch


    Complete name Путешествие в счастливую Аравию 1993.avi
    Format : AVI
    Format/Info : Audio Video Interleave
    File size : 1.37 GiB
    Duration : 1h 18mn
    Overall bit rate : 2 509 Kbps
    Writing library : VirtualDub build 35491/release
    ID : 0
    Format : MPEG-4 Visual
    Format profile : Advanced Simple@L5
    Format settings, BVOP : 2
    Format settings, QPel : No
    Format settings, GMC : No warppoints
    Format settings, Matrix : Default (H.263)
    Codec ID : XVID
    Codec ID/Hint : XviD
    Duration : 1h 18mn
    Bit rate : 2 307 Kbps
    Width : 704 pixels
    Height : 528 pixels
    Display aspect ratio : 4:3
    Frame rate : 25.000 fps
    Color space : YUV
    Chroma subsampling : 4:2:0
    Bit depth : 8 bits
    Scan type : Progressive
    Compression mode : Lossy
    Bits/(Pixel*Frame) : 0.248
    Stream size : 1.26 GiB (92%)
    Writing library : XviD 1.2.1 (UTC 2008-12-04)
    ID : 1
    Format : AC-3
    Format/Info : Audio Coding 3
    Mode extension : CM (complete main)
    Format settings, Endianness : Big
    Codec ID : 2000
    Duration : 1h 18mn
    Bit rate mode : Constant
    Bit rate : 192 Kbps
    Channel(s) : 2 channels
    Channel positions : Front: L R
    Sampling rate : 48.0 KHz
    Bit depth : 16 bits
    Compression mode : Lossy
    Stream size : 108 MiB (8%)
    Alignment : Aligned on interleaves
    Interleave, duration : 40 ms (1.00 video frame)
    Interleave, preload duratio : 512 ms

    Скриншот c названием фильма


    Download .torrent

    Download free and at maximum speed!

    How to Download? · What is a torrent? · Ratings and Limitations

    The site does not extend and does not store electronic(digital) versions of products, and only gives access to a reference catalogue created by users on torrent-files which contain only lists of the hash-sums, the earnest entreaty, with complaints(abuse) to access directly to the user. Files for an exchange on tracker are given by users of a site, and the administration does not bear the responsibility for their maintenance. The request to not fill in the files protected by copyrights, and also files of the illegal maintenance!

    [Profile] [PM]
    Display posts from previous:    
    Reply to topic

    The time now is: Today 21:05

    All times are GMT + 3 Hours

    You cannot post new topics in this forum
    You cannot reply to topics in this forum
    You cannot edit your posts in this forum
    You cannot delete your posts in this forum
    You cannot vote in polls in this forum
    You cannot attach files in this forum
    You cannot download files in this forum