BitTorrentTracker PerecTracker.org
BitTorrentTracker PerecTracker.org
    
Регистрация  ·  Вход
 
 · 
Забыли пароль?

  • Каникулы Петрова и Васечкина, обыкновенные и невероятные (Владимир Алеников) [1984, музыкальная комедия, DVDRip-AVC]

    Ответить на тему
     
    Автор Сообщение

    Light

    Создавать темы 11-Апр-2015 19:33

           

    [Цитировать]

    Каникулы Петрова и Васечкина, обыкновенные и невероятные (2 серии)-Жанр: музыкальная комедия
    Год выпуска: 1984
    Продолжительность: 02:14:57
    Cубтитры: русские-Режиссёр: Владимир Алеников-В ролях:
    Егор Дружинин, Дима Барков, Инга Ильм, Александр Леньков, Алеша Гусев, Максим Полянский, Света Протасенкова, Андрей Каневский, Инна Аленикова, Людмила Иванова, Татьяна Божок, Виктор Павловский, Юрий Медведев, Владислав Дружинин, Анатолий Кузнецов...
    Описание:
    Музыкальная кинокомедия о веселых приключениях двух друзей - Васи Петрова и Пети Васечкина, знакомых по фильму «Приключения Петрова и Васечкина». Неистощимые на выдумки ребята, ученики четвертого класса, повзрослели, но с ними каждый день опять что-нибудь да приключается, даже во время летних каникул…-Исходник | Сэмпл | Кинопоиск-Качество видео: DVDRip-AVC, спасибо Jeykamil2007
    Формат видео: MKV
    Видео: x264 (High@L4.1); 720@668х576, Display aspect ratio 4:3, 25.000 fps, 1928 Kbps
    Аудио: Оригинал: AC-3; 16 bit 48 Khz; 5.1ch 384 Kbps; CBR
    Формат субтитров: softsub (SRT)
    MediaInfo

    -

    x264 log

    avs [info]: 720x576p 16:15 @ 25/1 fps (cfr)
    x264 [info]: using SAR=16/15
    x264 [info]: using cpu capabilities: MMX2 SSE2Fast SSSE3 SSE4.2
    x264 [info]: profile High, level 4.1
    x264 [info]: frame I:1390 Avg QP:18.71 size: 48707
    x264 [info]: frame P:50644 Avg QP:21.44 size: 18650
    x264 [info]: frame B:150413 Avg QP:23.52 size: 6245
    x264 [info]: consecutive B-frames: 3.9% 4.0% 14.3% 21.2% 13.8% 37.7% 3.4% 1.3% 0.4% 0.2%
    x264 [info]: mb I I16..4: 3.2% 86.3% 10.5%
    x264 [info]: mb P I16..4: 0.5% 12.5% 0.9% P16..4: 37.4% 35.9% 11.0% 1.2% 0.1% skip: 0.6%
    x264 [info]: mb B I16..4: 0.0% 1.9% 0.1% B16..8: 40.3% 20.8% 2.7% direct: 5.3% skip:28.8% L0:40.4% L1:43.8% BI:15.8%
    x264 [info]: 8x8 transform intra:90.4% inter:71.7%
    x264 [info]: direct mvs spatial:99.2% temporal:0.8%
    x264 [info]: coded y,uvDC,uvAC intra: 94.2% 75.2% 32.8% inter: 30.5% 19.4% 4.3%
    x264 [info]: i16 v,h,dc,p: 11% 16% 2% 71%
    x264 [info]: i8 v,h,dc,ddl,ddr,vr,hd,vl,hu: 10% 8% 5% 9% 13% 14% 13% 14% 14%
    x264 [info]: i4 v,h,dc,ddl,ddr,vr,hd,vl,hu: 10% 8% 2% 8% 16% 17% 15% 12% 12%
    x264 [info]: i8c dc,h,v,p: 30% 27% 23% 20%
    x264 [info]: Weighted P-Frames: Y:15.2% UV:2.6%
    x264 [info]: ref P L0: 44.6% 14.7% 15.3% 5.4% 4.5% 3.1% 2.9% 1.5% 1.5% 1.2% 1.2% 1.0% 1.0% 0.8% 0.9% 0.6%
    x264 [info]: ref B L0: 78.3% 9.3% 3.5% 2.0% 1.4% 1.3% 1.0% 0.6% 0.5% 0.5% 0.4% 0.4% 0.4% 0.2% 0.1%
    x264 [info]: ref B L1: 95.3% 4.7%
    x264 [info]: kb/s:1927.98
    x264 [total]: encoded 202447 frames, 11.06 fps, 1927.98 kb/s
    -General
    Unique ID : 232801430816515125195870351169316016269 (0xAF23ECB735EA4663A545C4AD0D39508D)
    Complete name : Каникулы Петрова и Васечкина.1984.mkv
    Format : Matroska
    Format version : Version 2
    File size : 2.18 GiB
    Duration : 2h 14mn
    Overall bit rate : 2 314 Kbps
    Movie name : «Каникулы Петрова и Васечкина»
    Encoded date : UTC 2015-04-09 17:21:51
    Writing application : mkvmerge v5.8.0 ('No Sleep / Pillow') built on Sep 2 2012 15:37:04
    Writing library : libebml v1.2.3 + libmatroska v1.3.0
    Comment : DVDRip-AVC
    Originally released : April 9th 2015
    Encoded by : george$t®
    Video
    ID : 1
    Format : AVC
    Format/Info : Advanced Video Codec
    Format profile : High@L4.1
    Format settings, CABAC : Yes
    Format settings, ReFrames : 16 frames
    Codec ID : V_MPEG4/ISO/AVC
    Duration : 2h 14mn
    Bit rate : 1 928 Kbps
    Width : 720 pixels
    Height : 576 pixels
    Display aspect ratio : 4:3
    Frame rate mode : Constant
    Frame rate : 25.000 fps
    Standard : PAL
    Color space : YUV
    Chroma subsampling : 4:2:0
    Bit depth : 8 bits
    Scan type : Progressive
    Bits/(Pixel*Frame) : 0.186
    Stream size : 1.78 GiB (81%)
    Title : Каникулы Петрова и Васечкина.1984
    Writing library : x264 core 130 r2273 b3065e6
    Encoding settings : cabac=1 / ref=16 / deblock=1:-1:0 / analyse=0x3:0x133 / me=umh / subme=11 / psy=1 / psy_rd=0.95:0.10 / mixed_ref=1 / me_range=48 / chroma_me=1 / trellis=2 / 8x8dct=1 / cqm=0 / deadzone=21,11 / fast_pskip=0 / chroma_qp_offset=-3 / threads=12 / lookahead_threads=2 / sliced_threads=0 / nr=0 / decimate=0 / interlaced=0 / bluray_compat=0 / constrained_intra=0 / bframes=9 / b_pyramid=2 / b_adapt=2 / b_bias=0 / direct=3 / weightb=1 / open_gop=0 / weightp=2 / keyint=250 / keyint_min=25 / scenecut=40 / intra_refresh=0 / rc_lookahead=60 / rc=2pass / mbtree=1 / bitrate=1928 / ratetol=1.0 / qcomp=0.70 / qpmin=0 / qpmax=69 / qpstep=4 / cplxblur=20.0 / qblur=0.5 / vbv_maxrate=50000 / vbv_bufsize=62500 / nal_hrd=none / ip_ratio=1.30 / aq=1:1.00
    Language : Russian
    Default : Yes
    Forced : No
    Color primaries : BT.601 PAL
    Transfer characteristics : BT.470 System B, BT.470 System G
    Matrix coefficients : BT.601
    Color range : Limited
    Audio
    ID : 2
    Format : AC-3
    Format/Info : Audio Coding 3
    Mode extension : CM (complete main)
    Format settings, Endianness : Big
    Codec ID : A_AC3
    Duration : 2h 14mn
    Bit rate mode : Constant
    Bit rate : 384 Kbps
    Channel(s) : 6 channels
    Channel positions : Front: L C R, Side: L R, LFE
    Sampling rate : 48.0 KHz
    Bit depth : 16 bits
    Compression mode : Lossy
    Stream size : 371 MiB (17%)
    Title : Оригинал: AC-3; 16 bit 48 Khz; 5.1ch 384 Kbps; CBR
    Language : Russian
    Default : Yes
    Forced : No
    Text
    ID : 3
    Format : UTF-8
    Codec ID : S_TEXT/UTF8
    Codec ID/Info : UTF-8 Plain Text
    Title : Субтитры русские
    Language : Russian
    Default : No
    Forced : No
    Скачать .torrent

    Скачать торрент-файл бесплатно и на максимальной скорости!

    Как скачивать? · Что такое торрент? · Рейтинг и ограничения

    !ВНИМАНИЕ!
    Сайт не распространяет и не хранит электронные версии произведений, а занимается лишь лишь предоставлением доступа к создаваемому пользователями каталогу ссылок на торрент-файлы, которые содержат только списки хеш-сумм, убедительная просьба с жалобами обращаться напрямую к пользователю. Файлы для обмена на трекере предоставлены пользователями сайта, и администрация не несёт ответственности за их содержание. Просьба не заливать файлы, защищенные авторскими правами, а также файлы нелегального содержания!


    _________________
    [Профиль] [ЛС]
    Показать сообщения:    
    Ответить на тему

    Текущее время: Сегодня, в 06:39

    Часовой пояс: GMT + 2



    Вы не можете начинать темы
    Вы не можете отвечать на сообщения
    Вы не можете редактировать свои сообщения
    Вы не можете удалять свои сообщения
    Вы не можете голосовать в опросах
    Вы не можете прикреплять файлы к сообщениям
    Вы не можете скачивать файлы