BitTorrentTracker PerecTracker.org
BitTorrentTracker PerecTracker.org
    
Регистрация  ·  Вход
 
 · 
Забыли пароль?

  • Пётр Первый (Владимир Петров) [1937-1938 г.г., драма, исторический, DVDRip]

    Ответить на тему
     
    Автор Сообщение

    Light

    Создавать темы 11-Апр-2015 19:33

           

    [Цитировать]

    Пётр Первый (2 серии)
    Жанр: драма, исторический
    Год выпуска: 1937
    Продолжительность: 03:30:19
    Режиссёр: Владимир Петров
    В ролях: Николай Симонов, Алла Тарасова, Виктор Добровольский, Ирина Зарубина, Владимир Гардин, Александр Лариков, Владимир Ершов, Николай Литвинов, Михаил Тарханов, Константин Гибшман, Федор Богданов, Михаил Жаров, Николай Черкасов
    Описание: Конец XVII - начало XVIII столетия, период становления Российской Империи, время крупных реформ, тайных заговоров, великих воинских побед. О жизни, государственной и военной деятельности Петра Первого - первого российского Императора - рассказывает этот фильм.
    Доп. информация: По одноименному роману Алексея Толстого. Съёмки первой серии фильма были закончены в 1937, второй — в 1938 году. Фильм восстановлен на киностудии «Мосфильм» в 1965 году. Награды: приз на выставке в Париже (1937), Сталинская премия I степени — Михаил Жаров, Владимир Петров, Николай Симонов (1941).
    Полная версия: http://perectracker.org/viewtopic.php?t=4145328
    Семпл: https://www.sendspace.com/file/6wu337
    Исходник: http://perectracker.org/viewtopic.php?t=4980565
    Качество видео: DVDRip
    Формат видео: AVI
    Видео: 688х512 (4:3), XviD 1.2.1, 25 кадров/сек, 1809 Кбит/сек
    Аудио: MPEG Audio (Version 1) Layer 3, 128 Кбит/сек, 48 КГц, 2 канала, русский

    MediaInfo

    ОбщееПолное имя : E:\MONAR.RU\Видео\Художественные фильмы\Пётр Первый (1937-1938).aviФормат : AVIФормат/Информация : Audio Video InterleaveРазмер файла : 2,86 ГбайтПродолжительность : 3 ч. 30 м.Общий поток : 1950 Кбит/сек
    ВидеоИдентификатор : 0Формат : MPEG-4 VisualПрофиль формата : Advanced Simple@L5Параметр BVOP формата : 2Параметр QPel формата : НетПараметр GMC формата : Без точки переходаПараметр матрицы формата : ВыборочнаяИдентификатор кодека : XVIDИдентификатор кодека/Подсказка : XviDПродолжительность : 3 ч. 30 м.Битрейт : 1809 Кбит/секШирина : 688 пикселейВысота : 512 пикселейСоотношение сторон : 4:3Частота кадров : 25,000 кадров/секЦветовое пространство : YUVСубдискретизация насыщенности : 4:2:0Битовая глубина : 8 битТип развёртки : ПрогрессивнаяМетод сжатия : С потерямиБит/(Пиксели*Кадры) : 0.205Размер потока : 2,66 Гбайт (93%)Библиотека кодирования : XviD 1.2.1 (UTC 2008-12-04)
    АудиоИдентификатор : 1Формат : MPEG AudioВерсия формата : Version 1Профиль формата : Layer 3Идентификатор кодека : 55Идентификатор кодека/Подсказка : MP3Продолжительность : 3 ч. 30 м.Продолжительность оригинала : 3 ч. 30 м.Вид битрейта : ПостоянныйБитрейт : 128 Кбит/секКаналы : 2 каналаЧастота : 48,0 КГцМетод сжатия : С потерямиРазмер потока : 193 Мбайт (7%)Выравнивание : Разделение по промежуткамПродолжительность промежутка : 24 мс. (0,60 видеокадр)

    Скриншоты

    Скачать .torrent

    Скачать торрент-файл бесплатно и на максимальной скорости!

    Как скачивать? · Что такое торрент? · Рейтинг и ограничения

    !ВНИМАНИЕ!
    Сайт не распространяет и не хранит электронные версии произведений, а занимается лишь лишь предоставлением доступа к создаваемому пользователями каталогу ссылок на торрент-файлы, которые содержат только списки хеш-сумм, убедительная просьба с жалобами обращаться напрямую к пользователю. Файлы для обмена на трекере предоставлены пользователями сайта, и администрация не несёт ответственности за их содержание. Просьба не заливать файлы, защищенные авторскими правами, а также файлы нелегального содержания!


    _________________
    [Профиль] [ЛС]
    Показать сообщения:    
    Ответить на тему

    Текущее время: Сегодня, в 20:39

    Часовой пояс: GMT + 2



    Вы не можете начинать темы
    Вы не можете отвечать на сообщения
    Вы не можете редактировать свои сообщения
    Вы не можете удалять свои сообщения
    Вы не можете голосовать в опросах
    Вы не можете прикреплять файлы к сообщениям
    Вы не можете скачивать файлы