BitTorrentTracker PerecTracker.org
BitTorrentTracker PerecTracker.org
    
Регистрация  ·  Вход
 
 · 
Забыли пароль?

  • Кровавые дорожки / Blood Tracks (Матс Хельге / Mats Helge (в титрах под псевдонимом Майк Джексон)) [1985 г., ужасы, DVDRip]

    Ответить на тему
     
    Автор Сообщение

    Columb

    Создавать темы 23-Мар-2013 10:14

           

    [Цитировать]

    Кровавые дорожки / Blood Tracks-Год выпуска: 1985
    Страна: Швеция, США
    Жанр: ужасы
    Продолжительность: 01:24:58
    Перевод: Любительский (одноголосый, закадровый)
    Субтитры: нет
    Режиссер: Матс Хельге / Mats Helge (в титрах под псевдонимом Майк Джексон)


    В ролях: Джефф Хардинг, Майкл Фитцпатрик, Наоми Канеда, группа "Easy Action"
    Описание: Пребывая в горах на съёмках видеоклипа, рок-музыканты и бригада киношников оказались отрезаны от города снежной лавиной. Вдобавок выяснилось, что на стоящем неподалёку заброшенном заводе проживает семейство кровожадных отшельников.
    Качество: DVDRip
    Формат: AVI
    Видео кодек: XviD
    Аудио кодек: MP3
    Видео: XVID, 720x544, 4:3, 25,0 fps, 1779 kbps
    Аудио: MP3, 44,1 kHz, 192 kbps, 2.0

    MediaInfo

    Общее
    Полное имя : E:\Movs\Blood.Tracks.1985.Rus.avi
    Формат : AVI
    Формат/Информация : Audio Video Interleave
    Размер файла : 1,18 Гбайт
    Продолжительность : 1 ч. 24 м.
    Общий поток : 1981 Кбит/сек
    Программа кодирования : VirtualDubMod 1.5.4.1 (build 2178/release)
    Библиотека кодирования : VirtualDub build 32817/release
    Видео
    Идентификатор : 0
    Формат : MPEG-4 Visual
    Профиль формата : Advanced Simple@L5
    Параметр BVOP формата : Нет
    Параметр QPel формата : Нет
    Параметр GMC формата : Без точки перехода
    Параметр матрицы формата : Выборочная
    Идентификатор кодека : XVID
    Идентификатор кодека/Подсказка : XviD
    Продолжительность : 1 ч. 24 м.
    Битрейт : 1779 Кбит/сек
    Ширина : 720 пикселей
    Высота : 544 пикселя
    Соотношение сторон : 4:3
    Частота кадров : 25,000 кадров/сек
    Цветовое пространство : YUV
    Субдискретизация насыщенности : 4:2:0
    Битовая глубина : 8 бит
    Тип развёртки : Прогрессивная
    Метод сжатия : С потерями
    Бит/(Пиксели*Кадры) : 0.182
    Размер потока : 1,06 Гбайт (90%)
    Библиотека кодирования : XviD 1.2.1 (UTC 2008-12-04)
    Аудио
    Идентификатор : 1
    Формат : MPEG Audio
    Версия формата : Version 1
    Профиль формата : Layer 3
    Режим : Joint stereo
    Идентификатор кодека : 55
    Идентификатор кодека/Подсказка : MP3
    Продолжительность : 1 ч. 24 м.
    Вид битрейта : Постоянный
    Битрейт : 192 Кбит/сек
    Каналы : 2 канала
    Частота : 44,1 КГц
    Метод сжатия : С потерями
    Размер потока : 117 Мбайт (10%)
    Выравнивание : Разделение по промежуткам
    Продолжительность промежутка : 40 мс. (1,00 видеокадр)
    Время предзагрузки промежутка : 500 мс.

    Скриншоты




    Скачать .torrent

    Скачать торрент-файл бесплатно и на максимальной скорости!

    Как скачивать? · Что такое торрент? · Рейтинг и ограничения

    !ВНИМАНИЕ!
    Сайт не распространяет и не хранит электронные версии произведений, а занимается лишь лишь предоставлением доступа к создаваемому пользователями каталогу ссылок на торрент-файлы, которые содержат только списки хеш-сумм, убедительная просьба с жалобами обращаться напрямую к пользователю. Файлы для обмена на трекере предоставлены пользователями сайта, и администрация не несёт ответственности за их содержание. Просьба не заливать файлы, защищенные авторскими правами, а также файлы нелегального содержания!

    [Профиль] [ЛС]
    Показать сообщения:    
    Ответить на тему

    Текущее время: Сегодня, в 08:03

    Часовой пояс: GMT + 2



    Вы не можете начинать темы
    Вы не можете отвечать на сообщения
    Вы не можете редактировать свои сообщения
    Вы не можете удалять свои сообщения
    Вы не можете голосовать в опросах
    Вы не можете прикреплять файлы к сообщениям
    Вы не можете скачивать файлы