BitTorrentTracker PerecTracker.org
BitTorrentTracker PerecTracker.org
    
Регистрация  ·  Вход
 
 · 
Забыли пароль?

  • Время выбрало нас (Михаил Пташук) [1979, военный, DVB]

    Ответить на тему
     
    Автор Сообщение

    Light

    Создавать темы 11-Апр-2015 02:48

           

    [Цитировать]

    Время выбрало нас (5 серий)
    Жанр: военный
    Год выпуска: 1979
    Продолжительность: 01:06:04 + 01:13:20 + 01:05:35 + 01:08:02 + 01:05:29
    Режиссёр: Михаил Пташук
    В ролях: Евгений Герасимов, Пётр Вельяминов, Виктор Проскурин, Владимир Гостюхин, Виктор Павлов, Евгений Лебедев, Вероника Изотова, Марина Дюжева, Станислав Жданько, Леонид Марков, Михаил Глузский, Николай Прокопович, Гирт Яковлев, Алексей Эйбоженко, Федор Шмаков, Стефания Станюта, Виктор Тарасов, Петр Юрченков (ст.), Владимир Грицевский, Владимир Золотухин, Евгений Карельских, Вячеслав Молоков, Ирина Муравьева, Арнольд Помазан, Нина Розанцева, Мария Захаревич, Улдис Пуцитис
    Описание: Зима 1942 года. Ивану Воронецкому в качестве уполномоченного ЦК ЛКСМБ и его группе из 5-ти человек поручают особое задание: пройти четыре оккупированных района Белоруссии, установить связь с комсомольским подпольем, передать комсомольцам листовки и сводки – особенно о разгроме немцев под Москвой.
    Доп. информация: Запись потока *.ts спутника ABS 2, 75° в.д., ремукс в *.mpg программой VideoReDo.
    Качество видео: DVB
    Формат видео: MPEG-PS
    Видео: MPEG Video, 704(768)x576 (4:3), 25,000 кадров/сек, 2 638 Кбит/сек
    Аудио: MPEG Audio, 48,0 КГц, 192 Кбит/сек, 2 канала

    MediaInfo

    General
    Complete name : F:\PVR\Время выбрало нас 1 (ZVEZDA 75).mpg
    Format : MPEG-PS
    File size : 1.33 GiB
    Duration : 1h 6mn
    Overall bit rate mode : Variable
    Overall bit rate : 2 887 Kbps
    Video
    ID : 224 (0xE0)
    Format : MPEG Video
    Format version : Version 2
    Format profile : Main@Main
    Format settings, BVOP : Yes
    Format settings, Matrix : Custom
    Format settings, GOP : M=1, N=10
    Duration : 1h 6mn
    Bit rate mode : Variable
    Bit rate : 2 638 Kbps
    Maximum bit rate : 15.0 Mbps
    Width : 704 pixels
    Height : 576 pixels
    Display aspect ratio : 4:3
    Frame rate : 25.000 fps
    Standard : PAL
    Color space : YUV
    Chroma subsampling : 4:2:0
    Bit depth : 8 bits
    Scan type : Interlaced
    Scan order : Top Field First
    Compression mode : Lossy
    Bits/(Pixel*Frame) : 0.260
    Stream size : 1.22 GiB (91%)
    Audio
    ID : 192 (0xC0)
    Format : MPEG Audio
    Format version : Version 1
    Format profile : Layer 2
    Duration : 1h 6mn
    Bit rate mode : Constant
    Bit rate : 192 Kbps
    Channel(s) : 2 channels
    Sampling rate : 48.0 KHz
    Compression mode : Lossy
    Delay relative to video : 16ms
    Stream size : 90.7 MiB (7%)
    General
    Complete name : F:\PVR\Время выбрало нас 2 (ZVEZDA 75).mpg
    Format : MPEG-PS
    File size : 1.48 GiB
    Duration : 1h 13mn
    Overall bit rate mode : Variable
    Overall bit rate : 2 887 Kbps
    Video
    ID : 224 (0xE0)
    Format : MPEG Video
    Format version : Version 2
    Format profile : Main@Main
    Format settings, BVOP : Yes
    Format settings, Matrix : Custom
    Format settings, GOP : M=1, N=31
    Duration : 1h 13mn
    Bit rate mode : Variable
    Bit rate : 2 638 Kbps
    Maximum bit rate : 15.0 Mbps
    Width : 704 pixels
    Height : 576 pixels
    Display aspect ratio : 4:3
    Frame rate : 25.000 fps
    Standard : PAL
    Color space : YUV
    Chroma subsampling : 4:2:0
    Bit depth : 8 bits
    Scan type : Interlaced
    Scan order : Top Field First
    Compression mode : Lossy
    Bits/(Pixel*Frame) : 0.260
    Stream size : 1.35 GiB (91%)
    Audio
    ID : 192 (0xC0)
    Format : MPEG Audio
    Format version : Version 1
    Format profile : Layer 2
    Duration : 1h 13mn
    Bit rate mode : Constant
    Bit rate : 192 Kbps
    Channel(s) : 2 channels
    Sampling rate : 48.0 KHz
    Compression mode : Lossy
    Delay relative to video : 16ms
    Stream size : 101 MiB (7%)
    General
    Complete name : F:\PVR\Время выбрало нас 2 (ZVEZDA 75).mpg
    Format : MPEG-PS
    File size : 1.48 GiB
    Duration : 1h 13mn
    Overall bit rate mode : Variable
    Overall bit rate : 2 887 Kbps
    Video
    ID : 224 (0xE0)
    Format : MPEG Video
    Format version : Version 2
    Format profile : Main@Main
    Format settings, BVOP : Yes
    Format settings, Matrix : Custom
    Format settings, GOP : M=1, N=31
    Duration : 1h 13mn
    Bit rate mode : Variable
    Bit rate : 2 638 Kbps
    Maximum bit rate : 15.0 Mbps
    Width : 704 pixels
    Height : 576 pixels
    Display aspect ratio : 4:3
    Frame rate : 25.000 fps
    Standard : PAL
    Color space : YUV
    Chroma subsampling : 4:2:0
    Bit depth : 8 bits
    Scan type : Interlaced
    Scan order : Top Field First
    Compression mode : Lossy
    Bits/(Pixel*Frame) : 0.260
    Stream size : 1.35 GiB (91%)
    Audio
    ID : 192 (0xC0)
    Format : MPEG Audio
    Format version : Version 1
    Format profile : Layer 2
    Duration : 1h 13mn
    Bit rate mode : Constant
    Bit rate : 192 Kbps
    Channel(s) : 2 channels
    Sampling rate : 48.0 KHz
    Compression mode : Lossy
    Delay relative to video : 16ms
    Stream size : 101 MiB (7%)
    General
    Complete name : F:\PVR\Время выбрало нас 3 (ZVEZDA 75).mpg
    Format : MPEG-PS
    File size : 1.32 GiB
    Duration : 1h 5mn
    Overall bit rate mode : Variable
    Overall bit rate : 2 887 Kbps
    Video
    ID : 224 (0xE0)
    Format : MPEG Video
    Format version : Version 2
    Format profile : Main@Main
    Format settings, BVOP : Yes
    Format settings, Matrix : Custom
    Format settings, GOP : M=1, N=31
    Duration : 1h 5mn
    Bit rate mode : Variable
    Bit rate : 2 638 Kbps
    Maximum bit rate : 15.0 Mbps
    Width : 704 pixels
    Height : 576 pixels
    Display aspect ratio : 4:3
    Frame rate : 25.000 fps
    Standard : PAL
    Color space : YUV
    Chroma subsampling : 4:2:0
    Bit depth : 8 bits
    Scan type : Interlaced
    Scan order : Top Field First
    Compression mode : Lossy
    Bits/(Pixel*Frame) : 0.260
    Stream size : 1.21 GiB (91%)
    Audio
    ID : 192 (0xC0)
    Format : MPEG Audio
    Format version : Version 1
    Format profile : Layer 2
    Duration : 1h 5mn
    Bit rate mode : Constant
    Bit rate : 192 Kbps
    Channel(s) : 2 channels
    Sampling rate : 48.0 KHz
    Compression mode : Lossy
    Delay relative to video : 16ms
    Stream size : 90.1 MiB (7%)
    General
    Complete name : F:\PVR\Время выбрало нас 4 (ZVEZDA 75).mpg
    Format : MPEG-PS
    File size : 1.37 GiB
    Duration : 1h 8mn
    Overall bit rate mode : Variable
    Overall bit rate : 2 888 Kbps
    Video
    ID : 224 (0xE0)
    Format : MPEG Video
    Format version : Version 2
    Format profile : Main@Main
    Format settings, BVOP : Yes
    Format settings, Matrix : Custom
    Format settings, GOP : M=3, N=27
    Duration : 1h 8mn
    Bit rate mode : Variable
    Bit rate : 2 638 Kbps
    Maximum bit rate : 15.0 Mbps
    Width : 704 pixels
    Height : 576 pixels
    Display aspect ratio : 4:3
    Frame rate : 25.000 fps
    Standard : PAL
    Color space : YUV
    Chroma subsampling : 4:2:0
    Bit depth : 8 bits
    Scan type : Interlaced
    Scan order : Top Field First
    Compression mode : Lossy
    Bits/(Pixel*Frame) : 0.260
    Stream size : 1.25 GiB (91%)
    Audio
    ID : 192 (0xC0)
    Format : MPEG Audio
    Format version : Version 1
    Format profile : Layer 2
    Duration : 1h 8mn
    Bit rate mode : Constant
    Bit rate : 192 Kbps
    Channel(s) : 2 channels
    Sampling rate : 48.0 KHz
    Compression mode : Lossy
    Delay relative to video : 24ms
    Stream size : 93.4 MiB (7%)
    General
    Complete name : F:\PVR\Время выбрало нас 5 (ZVEZDA 75).mpg
    Format : MPEG-PS
    File size : 1.32 GiB
    Duration : 1h 5mn
    Overall bit rate mode : Variable
    Overall bit rate : 2 887 Kbps
    Video
    ID : 224 (0xE0)
    Format : MPEG Video
    Format version : Version 2
    Format profile : Main@Main
    Format settings, BVOP : Yes
    Format settings, Matrix : Custom
    Format settings, GOP : M=1, N=27
    Duration : 1h 5mn
    Bit rate mode : Variable
    Bit rate : 2 638 Kbps
    Maximum bit rate : 15.0 Mbps
    Width : 704 pixels
    Height : 576 pixels
    Display aspect ratio : 4:3
    Frame rate : 25.000 fps
    Standard : PAL
    Color space : YUV
    Chroma subsampling : 4:2:0
    Bit depth : 8 bits
    Scan type : Interlaced
    Scan order : Top Field First
    Compression mode : Lossy
    Bits/(Pixel*Frame) : 0.260
    Stream size : 1.21 GiB (91%)
    Audio
    ID : 192 (0xC0)
    Format : MPEG Audio
    Format version : Version 1
    Format profile : Layer 2
    Duration : 1h 5mn
    Bit rate mode : Constant
    Bit rate : 192 Kbps
    Channel(s) : 2 channels
    Sampling rate : 48.0 KHz
    Compression mode : Lossy
    Delay relative to video : 24ms
    Stream size : 89.9 MiB (7%)

    Скриншоты

    Скачать .torrent

    Скачать торрент-файл бесплатно и на максимальной скорости!

    Как скачивать? · Что такое торрент? · Рейтинг и ограничения

    !ВНИМАНИЕ!
    Сайт не распространяет и не хранит электронные версии произведений, а занимается лишь лишь предоставлением доступа к создаваемому пользователями каталогу ссылок на торрент-файлы, которые содержат только списки хеш-сумм, убедительная просьба с жалобами обращаться напрямую к пользователю. Файлы для обмена на трекере предоставлены пользователями сайта, и администрация не несёт ответственности за их содержание. Просьба не заливать файлы, защищенные авторскими правами, а также файлы нелегального содержания!


    _________________
    [Профиль] [ЛС]
    Показать сообщения:    
    Ответить на тему

    Текущее время: Сегодня, в 20:49

    Часовой пояс: GMT + 2



    Вы не можете начинать темы
    Вы не можете отвечать на сообщения
    Вы не можете редактировать свои сообщения
    Вы не можете удалять свои сообщения
    Вы не можете голосовать в опросах
    Вы не можете прикреплять файлы к сообщениям
    Вы не можете скачивать файлы