BitTorrentTracker PerecTracker.org
BitTorrentTracker PerecTracker.org
    
Регистрация  ·  Вход
 
 · 
Забыли пароль?

  • Веселый Париж / Gay Purr-ee (Эйб Левитов / Abe Levitow) [1962, мультфильм, мюзикл, комедия, WEB-DLRip] MVO + 2xAVO (Дохалов, Дольский) + Original Eng + Eng Sub

    Ответить на тему
     
    Автор Сообщение

    rechyn

    Создавать темы 11-Апр-2015 02:48

           

    [Цитировать]

    Веселый Париж / Gay Purr-ee«Vive La Fun!... Vive La Joy!... Vive La Judy!...»-Страна: США
    Жанр: мультфильм, мюзикл, комедия, семейный
    Год выпуска: 1962
    Продолжительность: 01:25:02
    Перевод: Профессиональный (Многоголосый, закадровый) - DVD Магия
    Перевод 2: Авторский (Одноголосый закадровый) - Дохалов
    Перевод 3: Авторский (Одноголосый закадровый) - Дольский
    Русские субтитры: Нет-Режиссер: Эйб Левитов / Abe Levitow-Описание: Мурлыка - это деревенская кошечка, мечтающая о жизни в Париже. Веселое, наполненное песнями и очаровательной музыкой приключение начинается с похищения Мурлыки котами-преступниками. Дела ее плохи. Но отважные коты - Жан-Том и его верный друг Робеспьер - раскрывают преступный замысел и бросаются на выручку Мурлыке в надежде спасти похищенную кошечку.-Рейтинг:

    MPAA: - Нет возрастных ограничений-- Большое спасибо bora86bora за оцифровку Дохалова;
    - Большое спасибо Nekontroliruemij_devil за оцифровку Дольского;
    - Покупка, работа с WEB-DL и звуком -Azureus--Релиз: -Качество: WEB-DLRip
    Формат: AVI
    Видео: 720x400 (1.80:1), 23.976 fps, XviD build 65 ~2307 kbps avg, 0.33 bit/pixel
    Аудио: 48 kHz, AC3 Dolby Digital, 1/0 (C) ch, ~128 kbps - MVO
    Аудио 2: 48 kHz, AC3 Dolby Digital, 1 ch, ~192 kbps avg - AVO (Дохалов) (отдельным файлом)
    Аудио 3: 48 kHz, AC3 Dolby Digital, 1 ch, ~192 kbps avg - AVO (Дольский) (отдельным файлом)
    Аудио 4: 48 kHz, AC3 Dolby Digital, 1 ch, ~192 kbps avg - Eng (отдельным файлом)
    Субтитры: Английские-

    MI

    Format : AVI
    Format/Info : Audio Video Interleave
    File size : 1.45 GiB
    Duration : 1h 25mn
    Overall bit rate : 2 445 Kbps
    Writing application : VirtualDubMod 1.5.10.3 | www.virtualdub-fr.org || (build 2550/release)
    Writing library : VirtualDubMod build 2550/release
    Video
    ID : 0
    Format : MPEG-4 Visual
    Format profile : Advanced Simple@L5
    Format settings, BVOP : 2
    Format settings, QPel : No
    Format settings, GMC : No warppoints
    Format settings, Matrix : Custom
    Codec ID : XVID
    Codec ID/Hint : XviD
    Duration : 1h 25mn
    Bit rate : 2 307 Kbps
    Width : 720 pixels
    Height : 400 pixels
    Display aspect ratio : 16:9
    Frame rate : 23.976 fps
    Color space : YUV
    Chroma subsampling : 4:2:0
    Bit depth : 8 bits
    Scan type : Progressive
    Compression mode : Lossy
    Bits/(Pixel*Frame) : 0.334
    Stream size : 1.37 GiB (94%)
    Writing library : XviD 65
    Audio
    ID : 1
    Format : AC-3
    Format/Info : Audio Coding 3
    Mode extension : CM (complete main)
    Codec ID : 2000
    Duration : 1h 25mn
    Bit rate mode : Constant
    Bit rate : 128 Kbps
    Channel(s) : 1 channel
    Channel positions : Front: C
    Sampling rate : 48.0 KHz
    Bit depth : 16 bits
    Compression mode : Lossy
    Stream size : 77.9 MiB (5%)
    Alignment : Split accross interleaves
    Interleave, duration : 42 ms (1.00 video frame)
    Interleave, preload duration : 500 ms
    Все раздачи мультфильма!
    Скачать .torrent

    Скачать торрент-файл бесплатно и на максимальной скорости!

    Как скачивать? · Что такое торрент? · Рейтинг и ограничения

    !ВНИМАНИЕ!
    Сайт не распространяет и не хранит электронные версии произведений, а занимается лишь лишь предоставлением доступа к создаваемому пользователями каталогу ссылок на торрент-файлы, которые содержат только списки хеш-сумм, убедительная просьба с жалобами обращаться напрямую к пользователю. Файлы для обмена на трекере предоставлены пользователями сайта, и администрация не несёт ответственности за их содержание. Просьба не заливать файлы, защищенные авторскими правами, а также файлы нелегального содержания!


    _________________
    [Профиль] [ЛС]
    Показать сообщения:    
    Ответить на тему

    Текущее время: Сегодня, в 08:10

    Часовой пояс: GMT + 2



    Вы не можете начинать темы
    Вы не можете отвечать на сообщения
    Вы не можете редактировать свои сообщения
    Вы не можете удалять свои сообщения
    Вы не можете голосовать в опросах
    Вы не можете прикреплять файлы к сообщениям
    Вы не можете скачивать файлы