BitTorrentTracker PerecTracker.org
BitTorrentTracker PerecTracker.org
    
Регистрация  ·  Вход
 
 · 
Забыли пароль?

  • Сын Божий / Son of God (Кристофер Спенсер / Christopher Spencer) [2014, США, Драма, история, HDRip] MVO + Original Eng

    Ответить на тему
     
    Автор Сообщение

    Light

    Создавать темы 10-Апр-2015 22:36

           

    [Цитировать]

    --Божий Сын / Son of God--«Their Empire. His Kingdom»-Страна: США
    Жанр: драма, история
    Год выпуска: 2014
    Продолжительность: 02:18:13-Перевод: Профессиональный (многоголосый закадровый) iTunes
    Cубтитры: нет
    Оригинальная аудиодорожка: английский-Режиссер: Кристофер Спенсер / Christopher Spencer-В ролях: Себастьян Кнапп, Пол Нопс, Дарси Линкольн, Дэвид Ринтул, Гари Оливер, Уильям Хьюстон, Стюарт Скудамор, Нонсо Анози, Конан Стивенс, Джасса Ахлувалиа, Лэнгли Кирквуд, Джо Коэн, Лейла Миммек, Эндрю Брук, Луиз Деламер, Диого Моргадо, Дауд Шах, Эмбер Роуз Рева, Мэттью Гравель, Пол Марк Дэвис, Фрайзер Эйрс, Адриан Шиллер, Пол Брайтвелл, Саймон Кунц, Рома Дауни, Дэниэл
    Описание: История Иисуса Христа от Его рождения, до распятия, Воскрешения и Вознесения. «Сын Божий» - киноверсия минисериала «Библия». Прежде чем фильм «Сын Божий» оценят жители США, его уже успело просмотреть духовенство страны. Среди которых есть протестанты и католики. Кардинал Дональд Вюрл: «Я бы посоветовал этот фильм посмотреть некоторым моим знакомым, и особенно, думаю, фильм хорошо подходит для семейного просмотра. Это замечательная история о Сыне Божьем, которая напомнит нам о Его любви к нам.»-| Сэмпл | IMDB | КиноПоиск |-Качество видео: HDRip
    Формат видео: AVI
    Видео: 720x304 (2.37:1), 23.976 fps, XviD build 50 ~1994 kbps avg, 0.38 bit/pixel
    Аудио: 48 kHz, AC3 Dolby Digital, 3/2 (L,C,R,l,r) + LFE ch, ~384 kbps (RUS)
    Аудио 2: 48 kHz, AC3 Dolby Digital, 3/2 (L,C,R,l,r) + LFE ch, ~448 kbps (ENG)

    MediaInfo

    Общее
    Полное имя : E:\MOVIES\CYH.b0zh1j.2014.P.HDRip.2800Mb.avi
    Формат : AVI
    Формат/Информация : Audio Video Interleave
    Профиль формата : OpenDML
    Размер файла : 2,74 Гбайт
    Продолжительность : 2 ч. 18 м.
    Общий поток : 2834 Кбит/сек
    Программа кодирования : VirtualDubMod 1.5.10.2 (build 2540/release)
    Библиотека кодирования : VirtualDubMod build 2540/release
    Видео
    Идентификатор : 0
    Формат : MPEG-4 Visual
    Профиль формата : Advanced Simple@L5
    Параметр BVOP формата : 2
    Параметр QPel формата : Нет
    Параметр GMC формата : Без точки перехода
    Параметр матрицы формата : Default (MPEG)
    Идентификатор кодека : XVID
    Идентификатор кодека/Подсказка : XviD
    Продолжительность : 2 ч. 18 м.
    Битрейт : 1986 Кбит/сек
    Ширина : 720 пикселей
    Высота : 304 пикселя
    Соотношение сторон : 2,35:1
    Частота кадров : 23,976 кадра/сек
    Цветовое пространство : YUV
    Субдискретизация насыщенности : 4:2:0
    Битовая глубина : 8 бит
    Тип развёртки : Прогрессивная
    Метод сжатия : С потерями
    Бит/(Пиксели*Кадры) : 0.378
    Размер потока : 1,92 Гбайт (70%)
    Библиотека кодирования : XviD 1.2.1 (UTC 2008-12-04)
    Аудио #1
    Идентификатор : 1
    Формат : AC-3
    Формат/Информация : Audio Coding 3
    Расширение режима : CM (complete main)
    Параметр Endianness формата : Big
    Идентификатор кодека : 2000
    Продолжительность : 2 ч. 18 м.
    Вид битрейта : Постоянный
    Битрейт : 384 Кбит/сек
    Каналы : 6 каналов
    Расположение каналов : Front: L C R, Side: L R, LFE
    Частота : 48,0 КГц
    Битовая глубина : 16 бит
    Метод сжатия : С потерями
    Размер потока : 380 Мбайт (14%)
    Выравнивание : Разделение по промежуткам
    Продолжительность промежутка : 42 мс. (1,00 видеокадр)
    Время предзагрузки промежутка : 500 мс.
    Аудио #2
    Идентификатор : 2
    Формат : AC-3
    Формат/Информация : Audio Coding 3
    Расширение режима : CM (complete main)
    Параметр Endianness формата : Big
    Идентификатор кодека : 2000
    Продолжительность : 2 ч. 18 м.
    Вид битрейта : Постоянный
    Битрейт : 448 Кбит/сек
    Каналы : 6 каналов
    Расположение каналов : Front: L C R, Side: L R, LFE
    Частота : 48,0 КГц
    Битовая глубина : 16 бит
    Метод сжатия : С потерями
    Размер потока : 443 Мбайт (16%)
    Выравнивание : Разделение по промежуткам
    Продолжительность промежутка : 42 мс. (1,00 видеокадр)
    Время предзагрузки промежутка : 500 мс.

    Скриншот c названием фильма

    Скриншоты

    Скачать .torrent

    Скачать торрент-файл бесплатно и на максимальной скорости!

    Как скачивать? · Что такое торрент? · Рейтинг и ограничения

    !ВНИМАНИЕ!
    Сайт не распространяет и не хранит электронные версии произведений, а занимается лишь лишь предоставлением доступа к создаваемому пользователями каталогу ссылок на торрент-файлы, которые содержат только списки хеш-сумм, убедительная просьба с жалобами обращаться напрямую к пользователю. Файлы для обмена на трекере предоставлены пользователями сайта, и администрация не несёт ответственности за их содержание. Просьба не заливать файлы, защищенные авторскими правами, а также файлы нелегального содержания!


    _________________
    [Профиль] [ЛС]
    Показать сообщения:    
    Ответить на тему

    Текущее время: Сегодня, в 16:29

    Часовой пояс: GMT + 2



    Вы не можете начинать темы
    Вы не можете отвечать на сообщения
    Вы не можете редактировать свои сообщения
    Вы не можете удалять свои сообщения
    Вы не можете голосовать в опросах
    Вы не можете прикреплять файлы к сообщениям
    Вы не можете скачивать файлы