BitTorrentTracker PerecTracker.org
BitTorrentTracker PerecTracker.org
    
Регистрация  ·  Вход
 
 · 
Забыли пароль?

  • Дом в конце улицы / House at the End of the Street (Марк Тондерай / Mark Tonderai) [2012, США, Канада, ужасы, триллер, BDRip] [Расширенная версия / Unrated] Dub + Sub (rus forced)

    Ответить на тему
     
    Автор Сообщение

    Skillters

    Создавать темы 10-Апр-2015 19:21

           

    [Цитировать]

    Дом в конце улицы (Расширенная версия ) / House at the End of the Street (Unrated)
    Год выпуска: 2012
    Страна: США, Канада
    Жанр: триллер, ужасы
    Продолжительность: 01:41:46
    Перевод: Профессиональный (полное дублирование)
    Субтитры: русские (на непереведенные места) (SRT)
    Режиссер: Марк Тондерай / Mark Tonderai
    В ролях: Дженнифер Лоуренс (Elissa), Макс Тириот (Ryan), Элизабет Шу (Sarah), Джил Беллоуз (Weaver), Ева Линк (Carrie Anne), Нолан Фанк (Tyler), Элли МакДональд (Jillian), Джордан Хэйес (Penn State Carrie Anne), Криста Бриджес (Mary Jacobson), Джеймс Томас (Ben Reynolds), Хейли Сисера (Caitlin), Крэйг Элдридж (Dan Gifford)--Описание: Переехав жить в небольшой провинциальный город, Сара и ее дочь еще не догадываются, что вскоре окажутся в эпицентре ужаса…-Рейтинг:

    -Качество: BDRip (House at the End of the Street 2012 BluRay REMUX 1080p AVC DTS-HD MA5.1-CHD)
    Формат: AVI //SAMPLE//
    Видео: 720x304 (2.37:1), 23.976 fps, XviD build 65 ~1592 kbps avg, 0.30 bit/pixel
    Аудио: 48 kHz, AC3 Dolby Digital, 3/2 (L,C,R,l,r) + LFE ch, ~448 kbps

    MediaInfo

    Общее
    Полное имя : H:\Video\AVI\Films\Dom.V.Konce.Ulicy.UNRATED.2012.RUS.BDRip.XviD.AC3.-AllFilms\Dom.V.Konce.Ulicy.UNRATED.2012.RUS.BDRip.XviD.AC3.-AllFilms.avi
    Формат : AVI
    Формат/Информация : Audio Video Interleave
    Размер файла : 1,46 Гбайт
    Продолжительность : 1 ч. 41 м.
    Общий поток : 2050 Кбит/сек
    Название фильма : Дом в конце улицы / House at the End of the Street (2012)
    Режиссёр : Shevon (BDRemux)
    Программа кодирования : VirtualDubMod 1.5.10.3 | www.virtualdub-fr.org || (build 2550/release)
    Правообладатель : AllFilms (rutracker.org)
    Примечание : Unrated
    Видео
    Идентификатор : 0
    Формат : MPEG-4 Visual
    Профиль формата : Advanced Simple@L5
    Параметр BVOP формата : 1
    Параметр QPel формата : Нет
    Параметр GMC формата : Без точки перехода
    Параметр матрицы формата : Выборочная
    Идентификатор кодека : XVID
    Идентификатор кодека/Подсказка : XviD
    Продолжительность : 1 ч. 41 м.
    Битрейт : 1593 Кбит/сек
    Ширина : 720 пикселей
    Высота : 304 пикселя
    Соотношение сторон : 2,35:1
    Частота кадров : 23,976 кадра/сек
    Цветовое пространство : YUV
    Субдискретизация насыщенности : 4:2:0
    Битовая глубина : 8 бит
    Тип развёртки : Прогрессивная
    Метод сжатия : С потерями
    Бит/(Пиксели*Кадры) : 0.304
    Размер потока : 1,13 Гбайт (78%)
    Библиотека кодирования : XviD 65
    Аудио
    Идентификатор : 1
    Формат : AC-3
    Формат/Информация : Audio Coding 3
    Расширение режима : CM (complete main)
    Параметр Endianness формата : Big
    Идентификатор кодека : 2000
    Продолжительность : 1 ч. 41 м.
    Вид битрейта : Постоянный
    Битрейт : 448 Кбит/сек
    Каналы : 6 каналов
    Расположение каналов : Front: L C R, Side: L R, LFE
    Частота : 48,0 КГц
    Битовая глубина : 16 бит
    Метод сжатия : С потерями
    Размер потока : 326 Мбайт (22%)
    Выравнивание : Разделение по промежуткам
    Продолжительность промежутка : 42 мс. (1,00 видеокадр)
    Время предзагрузки промежутка : 500 мс.

    Скриншоты

    -
    Скачать .torrent

    Скачать торрент-файл бесплатно и на максимальной скорости!

    Как скачивать? · Что такое торрент? · Рейтинг и ограничения

    !ВНИМАНИЕ!
    Сайт не распространяет и не хранит электронные версии произведений, а занимается лишь лишь предоставлением доступа к создаваемому пользователями каталогу ссылок на торрент-файлы, которые содержат только списки хеш-сумм, убедительная просьба с жалобами обращаться напрямую к пользователю. Файлы для обмена на трекере предоставлены пользователями сайта, и администрация не несёт ответственности за их содержание. Просьба не заливать файлы, защищенные авторскими правами, а также файлы нелегального содержания!


    _________________
    [Профиль] [ЛС]
    Показать сообщения:    
    Ответить на тему

    Текущее время: Сегодня, в 06:03

    Часовой пояс: GMT + 2



    Вы не можете начинать темы
    Вы не можете отвечать на сообщения
    Вы не можете редактировать свои сообщения
    Вы не можете удалять свои сообщения
    Вы не можете голосовать в опросах
    Вы не можете прикреплять файлы к сообщениям
    Вы не можете скачивать файлы