BitTorrentTracker PerecTracker.org
BitTorrentTracker PerecTracker.org
    
Регистрация  ·  Вход
 
 · 
Забыли пароль?

  • Веселый Париж / Gay Purr-ee (Эйб Левитов / Abe Levitow) [1962, мультфильм, мюзикл, комедия, WEB-DLRip] MVO

    Ответить на тему
     
    Автор Сообщение

    rechyn

    Создавать темы 10-Апр-2015 18:24

           

    [Цитировать]

    Веселый Париж / Gay Purr-ee«Vive La Fun!... Vive La Joy!... Vive La Judy!...»-Страна: США
    Жанр: мультфильм, мюзикл, комедия, семейный
    Год выпуска: 1962
    Продолжительность: 01:25:02
    Перевод: Профессиональный (Многоголосый, закадровый) - DVD Магия
    Русские субтитры: Нет-Режиссер: Эйб Левитов / Abe Levitow-Описание: Мурлыка - это деревенская кошечка, мечтающая о жизни в Париже. Веселое, наполненное песнями и очаровательной музыкой приключение начинается с похищения Мурлыки котами-преступниками. Дела ее плохи. Но отважные коты - Жан-Том и его верный друг Робеспьер - раскрывают преступный замысел и бросаются на выручку Мурлыке в надежде спасти похищенную кошечку.-Рейтинг:

    MPAA: - Нет возрастных ограничений-- Покупка, работа с WEB-DL и звуком -Azureus--Релиз: -Качество: WEB-DLRip
    Формат: AVI
    Видео: 656x368 (1.78:1), 23.976 fps, XviD build 65 ~1085 kbps avg, 0.19 bit/pixel
    Аудио: 48 kHz, MPEG Layer 3, 1 ch, ~128.00 kbps avg
    Субтитры: Отсутствуют-

    MI

    Format : AVIFormat/Info : Audio Video InterleaveFile size : 744 MiBDuration : 1h 25mnOverall bit rate : 1 223 KbpsWriting application : VirtualDubMod 1.5.10.3 | www.virtualdub-fr.org || (build 2550/release)Writing library : VirtualDubMod build 2550/release
    VideoID : 0Format : MPEG-4 VisualFormat profile : Advanced Simple@L5Format settings, BVOP : 2Format settings, QPel : NoFormat settings, GMC : No warppointsFormat settings, Matrix : CustomCodec ID : XVIDCodec ID/Hint : XviDDuration : 1h 25mnBit rate : 1 085 KbpsWidth : 656 pixelsHeight : 368 pixelsDisplay aspect ratio : 16:9Frame rate : 23.976 fpsColor space : YUVChroma subsampling : 4:2:0Bit depth : 8 bitsScan type : ProgressiveCompression mode : LossyBits/(Pixel*Frame) : 0.188Stream size : 660 MiB (89%)Writing library : XviD 65
    AudioID : 1Format : MPEG AudioFormat version : Version 1Format profile : Layer 3Codec ID : 55Codec ID/Hint : MP3Duration : 1h 25mnBit rate mode : ConstantBit rate : 128 KbpsChannel(s) : 1 channelSampling rate : 48.0 KHzCompression mode : LossyStream size : 77.9 MiB (10%)Alignment : Aligned on interleavesInterleave, duration : 42 ms (1.00 video frame)Interleave, preload duration : 504 msWriting library : LAME3.99rEncoding settings : -m m -V 4 -q 2 -lowpass 20.5 -b 128
    Все раздачи мультфильма!
    Скачать .torrent

    Скачать торрент-файл бесплатно и на максимальной скорости!

    Как скачивать? · Что такое торрент? · Рейтинг и ограничения

    !ВНИМАНИЕ!
    Сайт не распространяет и не хранит электронные версии произведений, а занимается лишь лишь предоставлением доступа к создаваемому пользователями каталогу ссылок на торрент-файлы, которые содержат только списки хеш-сумм, убедительная просьба с жалобами обращаться напрямую к пользователю. Файлы для обмена на трекере предоставлены пользователями сайта, и администрация не несёт ответственности за их содержание. Просьба не заливать файлы, защищенные авторскими правами, а также файлы нелегального содержания!


    _________________
    [Профиль] [ЛС]
    Показать сообщения:    
    Ответить на тему

    Текущее время: Сегодня, в 20:36

    Часовой пояс: GMT + 2



    Вы не можете начинать темы
    Вы не можете отвечать на сообщения
    Вы не можете редактировать свои сообщения
    Вы не можете удалять свои сообщения
    Вы не можете голосовать в опросах
    Вы не можете прикреплять файлы к сообщениям
    Вы не можете скачивать файлы