BitTorrentTracker PerecTracker.org
BitTorrentTracker PerecTracker.org
    
Регистрация  ·  Вход
 
 · 
Забыли пароль?

  • Кат Бэнк / Cut Bank (Мэтт Шекман / Matt Shakman) [2014, США, Триллер, WEB-DLRip] VO

    Ответить на тему
     
    Автор Сообщение

    Light

    Создавать темы 10-Апр-2015 18:24

           

    [Цитировать]

    Кат Бэнк / Cut Bank
    Страна: США
    Жанр: Триллер
    Год выпуска: 2014
    Продолжительность: 01:33:18
    Перевод: Одноголосый закадровый [Shoegaze]
    Cубтитры: нет
    Оригинальная аудиодорожка: нет
    Режиссер: Мэтт Шекман / Matt Shakman
    В ролях: Билли Боб Торнтон, Лиам Хемсворт, Тереза Палмер, Джон Малкович, Майкл Стулбарг, Брюс Дерн, Оливер Платт, Соня Саломяа, Эйден Лонгуорт, Пейтон Кеннеди
    Описание: Дуэйн МакЛарен живет в городе Кат Бэнк, штат Монтана, работает в автомастерской, но в школе был звездой футбола. Поскольку городок буквально застрял во времени, Дуэйну очень хочется вырваться из него. Он предпринимает все возможное, чтобы покинуть Кат Бэнк, тем самым запуская череду событий, которые изменят не только его жизнь, но и сам город.
    Сэмпл: http://sendfile.su/1106281
    Качество видео: WEB-DLRip
    Формат видео: AVI
    Видео: 720x304 (2.37:1), 23.976 fps, XviD build 50 ~1837 kbps avg, 0.35 bit/pixel
    Аудио: 44.1 kHz, AC3 Dolby Digital, 2/0 (L,R) ch, ~384 kbps

    MediaInfo

    Общее
    Полное имя : D:\tor\Cut.Bank.2014..WEB-DLRip.1.46Gb.avi
    Формат : AVI
    Формат/Информация : Audio Video Interleave
    Размер файла : 1,45 Гбайт
    Продолжительность : 1 ч. 33 м.
    Общий поток : 2231 Кбит/сек
    Программа кодирования : VirtualDubMod 1.5.10.2 (build 2540/release)
    Библиотека кодирования : VirtualDubMod build 2540/release
    Видео
    Идентификатор : 0
    Формат : MPEG-4 Visual
    Профиль формата : Advanced Simple@L5
    Параметр BVOP формата : 2
    Параметр QPel формата : Нет
    Параметр GMC формата : Без точки перехода
    Параметр матрицы формата : Default (MPEG)
    Идентификатор кодека : XVID
    Идентификатор кодека/Подсказка : XviD
    Продолжительность : 1 ч. 33 м.
    Битрейт : 1838 Кбит/сек
    Ширина : 720 пикселей
    Высота : 304 пикселя
    Соотношение сторон : 2,35:1
    Частота кадров : 23,976 кадра/сек
    Цветовое пространство : YUV
    Субдискретизация насыщенности : 4:2:0
    Битовая глубина : 8 бит
    Тип развёртки : Прогрессивная
    Метод сжатия : С потерями
    Бит/(Пиксели*Кадры) : 0.350
    Размер потока : 1,20 Гбайт (82%)
    Библиотека кодирования : XviD 1.2.1 (UTC 2008-12-04)
    Аудио
    Идентификатор : 1
    Формат : AC-3
    Формат/Информация : Audio Coding 3
    Расширение режима : CM (complete main)
    Параметр Endianness формата : Big
    Идентификатор кодека : 2000
    Продолжительность : 1 ч. 33 м.
    Вид битрейта : Постоянный
    Битрейт : 384 Кбит/сек
    Каналы : 2 канала
    Расположение каналов : Front: L R
    Частота : 44,1 КГц
    Битовая глубина : 16 бит
    Метод сжатия : С потерями
    Размер потока : 256 Мбайт (17%)
    Выравнивание : Разделение по промежуткам
    Продолжительность промежутка : 42 мс. (1,00 видеокадр)
    Время предзагрузки промежутка : 500 мс.

    Скриншот c названием фильма

    Скриншоты

    Скачать .torrent

    Скачать торрент-файл бесплатно и на максимальной скорости!

    Как скачивать? · Что такое торрент? · Рейтинг и ограничения

    !ВНИМАНИЕ!
    Сайт не распространяет и не хранит электронные версии произведений, а занимается лишь лишь предоставлением доступа к создаваемому пользователями каталогу ссылок на торрент-файлы, которые содержат только списки хеш-сумм, убедительная просьба с жалобами обращаться напрямую к пользователю. Файлы для обмена на трекере предоставлены пользователями сайта, и администрация не несёт ответственности за их содержание. Просьба не заливать файлы, защищенные авторскими правами, а также файлы нелегального содержания!


    _________________
    [Профиль] [ЛС]
    Показать сообщения:    
    Ответить на тему

    Текущее время: Сегодня, в 14:37

    Часовой пояс: GMT + 2



    Вы не можете начинать темы
    Вы не можете отвечать на сообщения
    Вы не можете редактировать свои сообщения
    Вы не можете удалять свои сообщения
    Вы не можете голосовать в опросах
    Вы не можете прикреплять файлы к сообщениям
    Вы не можете скачивать файлы