BitTorrentTracker PerecTracker.org
BitTorrentTracker PerecTracker.org
    
Регистрация  ·  Вход
 
 · 
Забыли пароль?

  • Мачо и ботан 2 / 22 Jump Street (Фил Лорд / Phil Lord, Кристофер Миллер / Christopher Miller) [2014 г., США, комедия, боевик, криминал, BDRip-AVC] Dub + Ukr + Original Eng + Sub (Rus, Eng)

    Ответить на тему
     
    Автор Сообщение

    Light

    Создавать темы 10-Апр-2015 10:00

           

    [Цитировать]

    -Мачо и ботан 2 / 22 Jump Street«Копам под прикрытием крыша не нужна»Страна: США
    Студия: 33andout, Cannell Studios, Columbia Pictures, JHF, JHF Productions, LStar Capital, Media Rights Capital, Metro-Goldwyn-Mayer (MGM), Original Film, Stephen J. Cannell Productions
    Жанр: Комедия, боевик, криминал
    Год выпуска: 2014
    Продолжительность: 01:51:56-Перевод : Профессиональный (полное дублирование), BD EUR
    Оригинальная аудиодорожка: английская
    Cубтитры: русские, английские
    Режиссер: Фил Лорд / Phil Lord, Кристофер Миллер / Christopher Miller
    В ролях: Джона Хилл, Ченнинг Татум, Петер Стормаре, Уайатт Расселл, Эмбер Стивенс, Джиллиан Белл, Айс Кьюб, братья Лукас, Ник Офферман, Джимми Татро
    Описание: Офицерам Шмидту и Дженко теперь предстоит работать под прикрытием в местном колледже. Однако когда Дженко встречает родственную душу в футбольной команде, а Шмидт проникает в богемную среду, они начинают сомневаться в их товариществе…-
    Сэмпл: скачать-Релиз от -
    Автор рипа: Elheym
    Качество: BDRip-AVC (источник: / Blu-ray EUR [22_Jump_Street-BLUEBIRD] / 1080p)
    Контейнер: MKV
    Видео: 1152x482 (2.40:1), 23.976 fps, MPEG-4 AVC, ~2830 kbps avg, 0.213 bit/pixel
    Аудио #1: Русский: AC3, 5.1, 48 kHz, ~448 Кбит/с | Профессиональный (полное дублирование), BD EUR |
    Аудио #2: Английский: AC3, 5.1, 48 kHz, ~448 Кбит/с | Оригинал |
    Аудио #3: Украинский: АС3, 5.1, 48 kHz, ~448 Кбит/с | Профессиональный (полное дублирование) |
    Субтитры: русские (полные), английские (полные)
    Главы: Присутствуют, сохранены оригинальные

    MediaInfo

    Уникальный идентификатор : 193716993196473261494615398110907501414 (0x91BC8929C12D726F97E04515992E8B66)
    Полное имя : 22.Jump.Street.2014.DUAL.BDRip-AVC.x264.AC3.-HQCLUB.mkv
    Формат : Matroska
    Версия формата : Version 2
    Размер файла : 2,91 Гбайт
    Продолжительность : 1 ч. 51 м.
    Общий поток : 3727 Кбит/сек
    Дата кодирования : UTC 2015-04-09 00:09:16
    Программа кодирования : mkvmerge v5.2.0 ('I can't explain') built on Dec 18 2011 18:12:03
    Библиотека кодирования : libebml v1.2.3 + libmatroska v1.3.0
    Attachements : Cover.png
    Видео
    Идентификатор : 1
    Формат : AVC
    Формат/Информация : Advanced Video Codec
    Профиль формата : High@L4.0
    Параметр CABAC формата : Да
    Параметр ReFrames формата : 13 кадров
    Идентификатор кодека : V_MPEG4/ISO/AVC
    Продолжительность : 1 ч. 51 м.
    Битрейт : 2830 Кбит/сек
    Ширина : 1152 пикселя
    Высота : 482 пикселя
    Соотношение сторон : 2,40:1
    Режим частоты кадров : Постоянный
    Частота кадров : 23,976 кадра/сек
    Цветовое пространство : YUV
    Субдискретизация насыщенности : 4:2:0
    Битовая глубина : 8 бит
    Тип развёртки : Прогрессивная
    Бит/(Пиксели*Кадры) : 0.213
    Размер потока : 2,16 Гбайт (74%)
    Заголовок : Мачо и ботан 2 / 22 Jump Street (2014) BDRip-AVC by HQCLUB [Elheym]
    Библиотека кодирования : x264 core 142 r2431+42 c69a006 tMod [8-bit@all X86_64]
    Настройки программы : cabac=1 / ref=13 / deblock=1:-2:-1 / analyse=0x3:0x113 / me=umh / subme=11 / psy=1 / fade_compensate=0.00 / psy_rd=1.09:0.15 / mixed_ref=1 / me_range=32 / chroma_me=1 / trellis=2 / 8x8dct=1 / cqm=0 / deadzone=21,11 / fast_pskip=0 / chroma_qp_offset=-3 / threads=6 / lookahead_threads=1 / sliced_threads=0 / nr=0 / decimate=1 / interlaced=0 / bluray_compat=0 / constrained_intra=0 / fgo=0 / bframes=16 / b_pyramid=2 / b_adapt=2 / b_bias=0 / direct=3 / weightb=1 / open_gop=0 / weightp=2 / keyint=230 / keyint_min=23 / scenecut=40 / intra_refresh=0 / rc_lookahead=80 / rc=2pass / mbtree=0 / bitrate=2830 / ratetol=1.0 / qcomp=0.70 / qpmin=0:0:0 / qpmax=69:69:69 / qpstep=4 / cplxblur=20.0 / qblur=0.5 / vbv_maxrate=20000 / vbv_bufsize=25000 / nal_hrd=none / filler=0 / ip_ratio=1.40 / pb_ratio=1.30 / aq=2:0.77 / aq-sensitivity=10.00 / aq-factor=1.00:1.00:1.00 / aq2=0 / aq3=0
    Язык : English
    Default : Да
    Forced : Нет
    Аудио #1
    Идентификатор : 2
    Формат : AC-3
    Формат/Информация : Audio Coding 3
    Расширение режима : CM (complete main)
    Параметр Endianness формата : Big
    Идентификатор кодека : A_AC3
    Продолжительность : 1 ч. 51 м.
    Вид битрейта : Постоянный
    Битрейт : 448 Кбит/сек
    Каналы : 6 каналов
    Расположение каналов : Front: L C R, Side: L R, LFE
    Частота : 48,0 КГц
    Битовая глубина : 16 бит
    Метод сжатия : С потерями
    Размер потока : 359 Мбайт (12%)
    Заголовок : АС3 5.1 @ 448 kbps - Dub, BD EUR
    Язык : Russian
    Default : Нет
    Forced : Нет
    Аудио #2
    Идентификатор : 3
    Формат : AC-3
    Формат/Информация : Audio Coding 3
    Расширение режима : CM (complete main)
    Параметр Endianness формата : Big
    Идентификатор кодека : A_AC3
    Продолжительность : 1 ч. 51 м.
    Вид битрейта : Постоянный
    Битрейт : 448 Кбит/сек
    Каналы : 6 каналов
    Расположение каналов : Front: L C R, Side: L R, LFE
    Частота : 48,0 КГц
    Битовая глубина : 16 бит
    Метод сжатия : С потерями
    Размер потока : 359 Мбайт (12%)
    Заголовок : АС3 5.1 @ 448 kbps - Original
    Язык : English
    Default : Нет
    Forced : Нет
    Текст #1
    Идентификатор : 4
    Формат : UTF-8
    Идентификатор кодека : S_TEXT/UTF8
    Идентификатор кодека/Информация : UTF-8 Plain Text
    Заголовок : Full
    Язык : Russian
    Default : Нет
    Forced : Нет
    Текст #2
    Идентификатор : 5
    Формат : UTF-8
    Идентификатор кодека : S_TEXT/UTF8
    Идентификатор кодека/Информация : UTF-8 Plain Text
    Заголовок : Full
    Язык : English
    Default : Нет
    Forced : Нет
    Меню
    00:00:00.000 : :Chapter 01
    00:06:21.798 : :Chapter 02
    00:13:09.371 : :Chapter 03
    00:19:57.362 : :Chapter 04
    00:26:32.173 : :Chapter 05
    00:31:30.096 : :Chapter 06
    00:36:47.246 : :Chapter 07
    00:43:49.251 : :Chapter 08
    00:51:46.394 : :Chapter 09
    00:58:58.409 : :Chapter 10
    01:07:30.588 : :Chapter 11
    01:16:28.250 : :Chapter 12
    01:23:02.602 : :Chapter 13
    01:29:51.677 : :Chapter 14
    01:35:25.469 : :Chapter 15
    01:41:57.194 : :Chapter 16

    x264 log

    x264 [info]: frame I:1722 Avg QP:15.07 size: 94180
    x264 [info]: frame P:39265 Avg QP:18.24 size: 28992
    x264 [info]: frame B:120053 Avg QP:20.36 size: 8945
    x264 [info]: consecutive B-frames: 3.9% 4.3% 10.3% 28.3% 15.9% 23.4% 6.3% 5.8% 0.6% 0.3% 0.2% 0.6% 0.1% 0.1% 0.0% 0.0% 0.0%
    x264 [info]: ref P L0: 48.0% 9.9% 16.7% 6.0% 5.0% 3.5% 3.1% 1.6% 1.5% 1.2% 1.2% 1.0% 1.0% 0.2% 0.0%
    x264 [info]: ref B L0: 74.5% 11.1% 5.1% 2.6% 1.8% 1.5% 1.2% 0.7% 0.6% 0.5% 0.3% 0.2%
    x264 [info]: ref B L1: 93.1% 6.9%

    Скриншоты

    Сравнения с исходником

    Источник- Рип-
    Скачать .torrent

    Скачать торрент-файл бесплатно и на максимальной скорости!

    Как скачивать? · Что такое торрент? · Рейтинг и ограничения

    !ВНИМАНИЕ!
    Сайт не распространяет и не хранит электронные версии произведений, а занимается лишь лишь предоставлением доступа к создаваемому пользователями каталогу ссылок на торрент-файлы, которые содержат только списки хеш-сумм, убедительная просьба с жалобами обращаться напрямую к пользователю. Файлы для обмена на трекере предоставлены пользователями сайта, и администрация не несёт ответственности за их содержание. Просьба не заливать файлы, защищенные авторскими правами, а также файлы нелегального содержания!


    _________________
    [Профиль] [ЛС]
    Показать сообщения:    
    Ответить на тему

    Текущее время: Сегодня, в 19:56

    Часовой пояс: GMT + 2



    Вы не можете начинать темы
    Вы не можете отвечать на сообщения
    Вы не можете редактировать свои сообщения
    Вы не можете удалять свои сообщения
    Вы не можете голосовать в опросах
    Вы не можете прикреплять файлы к сообщениям
    Вы не можете скачивать файлы