BitTorrentTracker PerecTracker.org
BitTorrentTracker PerecTracker.org
    
Регистрация  ·  Вход
 
 · 
Забыли пароль?

  • Кидон / Кувшинчик / Kidon / כידון (Эммануэль Наккаш / Emmanuel Naccache) [2013, Франция, Израиль, комедия, HDRip] [Fre-Transfer] Sub Rus + Original Fre

    Ответить на тему
     
    Автор Сообщение

    Light

    Создавать темы 10-Апр-2015 01:36

           

    [Цитировать]

    Кидон / Kidon / כידון
    Страна: Франция, Израиль
    Жанр: комедия
    Год выпуска: 2013
    Продолжительность: 01:37:03
    Перевод: Субтитры (Ombranetta)
    Субтитры: русские
    Оригинальная аудиодорожка: французский
    Режиссер: Эммануэль Наккаш / Emmanuel Naccache
    В ролях: Томер Сислей, Лионель Абелански, Кев Адамс, Ипполит Жирардо, Элоди Хесме, Бар Рефаэли, Сэссон Габаи, Шимрит Лустиг и др.
    Описание: В 2010 году в номере отеля в Дубае убит палестинский террорист Махмуд аль-Мавхух. Специалисты и СМИ приписывают эту операцию израильской разведке "Моссад". Однако "Моссад" отрицает свою причастность.
    Sample

    Работа с видео: whip93
    Качество видео: HDRip (исх. Kidon.2014.FRENCH.720p.BluRay.x264.DTS-UTT)
    Формат видео: AVI
    Видео: Xvid 720x304 25fps 1741kbps
    Аудио: Dolby AC3 48000Hz 6ch 384kbps
    Формат субтитров: softsub (SRT)

    Фрагмент субтитров

    1
    00:00:42,480 --> 00:00:45,390
    Солэн, вставай...
    Почему ты ещё здесь?
    2
    00:00:45,580 --> 00:00:47,170
    Пять минут...
    3
    00:00:49,020 --> 00:00:50,850
    Ты должна встать, Солэн.
    4
    00:00:52,080 --> 00:00:53,750
    Заснула? Четыре часа.
    5
    00:00:54,640 --> 00:00:56,080
    Ещё нет.
    6
    00:00:57,530 --> 00:00:59,500
    Ещё нет.
    7
    00:00:59,740 --> 00:01:02,960
    Черт побери! Не может быть!
    Ты обещал разбудить меня!
    8
    00:01:02,980 --> 00:01:04,970
    Это - десятый раз.
    9
    00:01:30,640 --> 00:01:32,610
    Подравляю!
    10
    00:01:34,010 --> 00:01:36,020
    - С чем?
    - Да.
    11
    00:01:37,360 --> 00:01:40,290
    Сегодня ровно месяц, как мы знакомы.
    12
    00:01:41,340 --> 00:01:43,560
    Ты такой милый, когда хочешь...
    13
    00:01:43,600 --> 00:01:45,760
    Да, я знаю.
    14
    00:02:38,720 --> 00:02:40,330
    - Что у нас есть?
    - "Га-Арец", "Идиот" и "Маарив".
    15
    00:02:40,350 --> 00:02:41,960
    Это получили полчаса назад.
    16
    00:02:41,990 --> 00:02:43,750
    Эти же документы получили
    все газеты Европы.
    17
    00:02:43,940 --> 00:02:46,870
    Полиция Дубая организовывает
    пресс-конференцию в 7 часов.
    18
    00:02:46,940 --> 00:02:49,940
    Попроси полицию прислать нам
    офицера связи.
    19
    00:02:55,320 --> 00:02:58,540
    - Привет, Офер!
    - Доброе утро. - Ицик!
    20
    00:02:59,180 --> 00:03:01,250
    - Говорили с CII?
    - Они не знают ничего.

    MediaInfo

    General
    Complete name : D:\Фильмы\Kidon 2014 HDRip whip93\Kidon.2014.HDRip.whip93.avi
    Format : AVI
    Format/Info : Audio Video Interleave
    File size : 1.45 GiB
    Duration : 1h 37mn
    Overall bit rate : 2 135 Kbps
    Writing application : VirtualDubMod 1.5.10.3 | www.virtualdub-fr.org || (build 2550/release)
    Writing library : VirtualDubMod build 2550/release
    Video
    ID : 0
    Format : MPEG-4 Visual
    Format profile : Advanced Simple@L5
    Format settings, BVOP : 1
    Format settings, QPel : No
    Format settings, GMC : No warppoints
    Format settings, Matrix : Default (MPEG)
    Codec ID : XVID
    Codec ID/Hint : XviD
    Duration : 1h 37mn
    Bit rate : 1 741 Kbps
    Width : 720 pixels
    Height : 304 pixels
    Display aspect ratio : 2.35:1
    Frame rate : 25.000 fps
    Color space : YUV
    Chroma subsampling : 4:2:0
    Bit depth : 8 bits
    Scan type : Progressive
    Compression mode : Lossy
    Bits/(Pixel*Frame) : 0.318
    Stream size : 1.18 GiB (82%)
    Writing library : XviD 65
    Audio
    ID : 1
    Format : AC-3
    Format/Info : Audio Coding 3
    Mode extension : CM (complete main)
    Format settings, Endianness : Big
    Codec ID : 2000
    Duration : 1h 37mn
    Bit rate mode : Constant
    Bit rate : 384 Kbps
    Channel(s) : 6 channels
    Channel positions : Front: L C R, Side: L R, LFE
    Sampling rate : 48.0 KHz
    Bit depth : 16 bits
    Compression mode : Lossy
    Stream size : 267 MiB (18%)
    Alignment : Split accross interleaves
    Interleave, duration : 40 ms (1.00 video frame)
    Interleave, preload duration : 500 ms

    Скриншоты

    Скачать .torrent

    Скачать торрент-файл бесплатно и на максимальной скорости!

    Как скачивать? · Что такое торрент? · Рейтинг и ограничения

    !ВНИМАНИЕ!
    Сайт не распространяет и не хранит электронные версии произведений, а занимается лишь лишь предоставлением доступа к создаваемому пользователями каталогу ссылок на торрент-файлы, которые содержат только списки хеш-сумм, убедительная просьба с жалобами обращаться напрямую к пользователю. Файлы для обмена на трекере предоставлены пользователями сайта, и администрация не несёт ответственности за их содержание. Просьба не заливать файлы, защищенные авторскими правами, а также файлы нелегального содержания!


    _________________
    [Профиль] [ЛС]
    Показать сообщения:    
    Ответить на тему

    Текущее время: Сегодня, в 02:37

    Часовой пояс: GMT + 2



    Вы не можете начинать темы
    Вы не можете отвечать на сообщения
    Вы не можете редактировать свои сообщения
    Вы не можете удалять свои сообщения
    Вы не можете голосовать в опросах
    Вы не можете прикреплять файлы к сообщениям
    Вы не можете скачивать файлы