BitTorrentTracker PerecTracker.org
BitTorrentTracker PerecTracker.org
    
Регистрация  ·  Вход
 
 · 
Забыли пароль?

  • Вселенная Стивена Хокинга / The Theory of Everything (Джеймс Марш / James Marsh) [2014, Великобритания, драма, мелодрама, биография, BDRip-AVC] Dub + Sub Rus, Ukr, Eng + Original Eng

    Ответить на тему
     
    Автор Сообщение

    Light

    Создавать темы 09-Апр-2015 17:12

           

    [Цитировать]

    Вселенная Стивена Хокинга | Теория всего
    The Theory of Everything
    -Страна: Великобритания
    Жанр: драма, мелодрама, биография
    Год выпуска: 2014
    Продолжительность: 02:03:25
    Перевод: Профессиональный (дублированный)
    Cубтитры: русские (forced, full), украинские, английские
    Оригинальная аудиодорожка: английский
    Режиссер: Джеймс Марш / James Marsh
    В ролях:
    Эдди Редмэйн / Eddie Redmayne
    Фелисити Джонс / Felicity Jones
    Чарли Кокс, Эмили Уотсон, Том Прайор, Софи Перри, Гарри Ллойд, Элис Орр-Юинг, Дэвид Тьюлис-ОписаниеИстория отношений Стивена Хокинга, гениального космолога, сражённого на заре карьеры "болезнью Лу Герига", и его жены, Джейн Хокинг.-Сэмпл

    IMDb: 7.80 (59 763)

    Оскар, 2015 год
    Победитель (1):
    Лучшая мужская роль (Эдди Редмэйн)

    Золотой глобус, 2015 год
    Победитель (2):
    Лучшая мужская роль (драма) (Эдди Редмэйн)
    Лучший саундтрек

    Качество видео: BDRip-AVC The.Theory.of.Everything.2014.1080p.BluRay.REMUX.AVC.DTS-HD.MA.5.1-RARBG
    Формат видео: MKV
    Видео: AVC 3299 Kbps 1152 x 480 (2.400) 23.976 fps
    Аудио: AC-3 448 Kbps 6 channels, 48.0 KHz Dub
    Аудио 2: AC-3 448 Kbps 6 channels, 48.0 KHz Eng
    Формат субтитров: softsub (SRT)
    MediaInfo | Log

    Log

    x264 [info]: frame I:1271 Avg QP:15.79 size: 94948
    x264 [info]: frame P:33942 Avg QP:17.18 size: 34762
    x264 [info]: frame B:142339 Avg QP:18.95 size: 12840
    x264 [info]: consecutive B-frames: 1.4% 1.4% 5.9% 9.8% 13.8% 53.1% 6.3% 1.6% 2.1% 1.3% 0.9% 0.6% 0.8% 0.5% 0.6%
    x264 [info]: mb I I16..4: 11.5% 77.0% 11.5%
    x264 [info]: mb P I16..4: 0.4% 14.9% 0.8% P16..4: 27.4% 33.8% 16.1% 2.2% 0.1% skip: 4.2%
    x264 [info]: mb B I16..4: 0.0% 1.7% 0.1% B16..8: 35.4% 22.0% 4.8% direct: 5.8% skip:30.3% L0:46.4% L1:42.9% BI:10.7%
    x264 [info]: 8x8 transform intra:90.6% inter:58.9%
    x264 [info]: direct mvs spatial:100.0% temporal:0.0%
    x264 [info]: coded y,uvDC,uvAC intra: 97.0% 94.6% 85.3% inter: 32.5% 25.7% 8.9%
    x264 [info]: i16 v,h,dc,p: 26% 8% 13% 54%
    x264 [info]: i8 v,h,dc,ddl,ddr,vr,hd,vl,hu: 9% 8% 13% 10% 13% 12% 12% 11% 12%
    x264 [info]: i4 v,h,dc,ddl,ddr,vr,hd,vl,hu: 10% 9% 8% 8% 15% 15% 13% 11% 12%
    x264 [info]: i8c dc,h,v,p: 49% 17% 15% 19%
    x264 [info]: Weighted P-Frames: Y:4.2% UV:2.8%
    x264 [info]: ref P L0: 41.4% 11.2% 18.7% 6.4% 6.1% 3.8% 3.9% 1.9% 2.0% 1.5% 1.6% 1.3% 0.1% 0.0%
    x264 [info]: ref B L0: 64.5% 13.7% 7.1% 4.0% 2.9% 2.5% 2.0% 1.3% 1.1% 0.6% 0.2%
    x264 [info]: ref B L1: 91.1% 8.9%
    x264 [info]: kb/s:3379.37
    x264 [total]: encoded 177552 frames, 8.43 fps, 3379.37 kb/s, duration 5:51:13.14
    Format : Matroska
    Format version : Version 4 / Version 2
    File size : 3.69 GiB
    Duration : 2h 3mn
    Overall bit rate : 4 277 Kbps
    Encoded date : UTC 2015-04-09 09:18:06
    Writing application : mkvmerge v6.7.0 ('Back to the Ground') 32bit built on Jan 8 2014 15:03:17
    Writing library : libebml v1.3.0 + libmatroska v1.4.1
    Video
    ID : 1
    Format : AVC
    Format/Info : Advanced Video Codec
    Format profile : High@L4.1
    Format settings, CABAC : Yes
    Format settings, ReFrames : 12 frames
    Codec ID : V_MPEG4/ISO/AVC
    Duration : 2h 3mn
    Bit rate : 3 296 Kbps
    Width : 1 152 pixels
    Height : 480 pixels
    Display aspect ratio : 2.40:1
    Frame rate mode : Constant
    Frame rate : 23.976 fps
    Color space : YUV
    Chroma subsampling : 4:2:0
    Bit depth : 8 bits
    Scan type : Progressive
    Bits/(Pixel*Frame) : 0.249
    Stream size : 2.84 GiB (77%)
    Title : The Theory of Everything [perectracker.org]
    Writing library : x264 core 144 r2525kMod 40bb568
    Encoding settings : cabac=1 / ref=12 / deblock=1:-2:-1 / analyse=0x3:0x133 / me=umh / subme=11 / psy=1 / fade_compensate=0.00 / psy_rd=1.00:0.05 / mixed_ref=1 / me_range=32 / chroma_me=1 / trellis=2 / 8x8dct=1 / cqm=0 / deadzone=21,11 / fast_pskip=0 / chroma_qp_offset=-3 / threads=12 / lookahead_threads=3 / sliced_threads=0 / nr=0 / decimate=1 / interlaced=0 / bluray_compat=0 / constrained_intra=0 / fgo=0 / bframes=14 / b_pyramid=2 / b_adapt=2 / b_bias=0 / direct=3 / weightb=1 / open_gop=0 / weightp=2 / keyint=250 / keyint_min=23 / scenecut=40 / intra_refresh=0 / rc_lookahead=80 / rc=crf / mbtree=0 / crf=18.0000 / qcomp=0.60 / qpmin=0 / qpmax=69 / qpstep=4 / vbv_maxrate=50000 / vbv_bufsize=62500 / crf_max=0.0 / nal_hrd=none / filler=0 / ip_ratio=1.40 / pb_ratio=1.30 / aq=3:0.90
    Language : English
    Default : Yes
    Forced : No
    Audio #1
    ID : 2
    Format : AC-3
    Format/Info : Audio Coding 3
    Mode extension : CM (complete main)
    Format settings, Endianness : Big
    Codec ID : A_AC3
    Duration : 2h 3mn
    Bit rate mode : Constant
    Bit rate : 448 Kbps
    Channel(s) : 6 channels
    Channel positions : Front: L C R, Side: L R, LFE
    Sampling rate : 48.0 KHz
    Bit depth : 16 bits
    Compression mode : Lossy
    Stream size : 395 MiB (10%)
    Title : DUB
    Language : Russian
    Default : Yes
    Forced : No
    Audio #2
    ID : 3
    Format : AC-3
    Format/Info : Audio Coding 3
    Mode extension : CM (complete main)
    Format settings, Endianness : Big
    Codec ID : A_AC3
    Duration : 2h 3mn
    Bit rate mode : Constant
    Bit rate : 448 Kbps
    Channel(s) : 6 channels
    Channel positions : Front: L C R, Side: L R, LFE
    Sampling rate : 48.0 KHz
    Bit depth : 16 bits
    Compression mode : Lossy
    Stream size : 395 MiB (10%)
    Title : Original
    Language : English
    Default : No
    Forced : No
    Text #1
    ID : 4
    Format : UTF-8
    Codec ID : S_TEXT/UTF8
    Codec ID/Info : UTF-8 Plain Text
    Title : Forced
    Language : Russian
    Default : Yes
    Forced : No
    Text #2
    ID : 5
    Format : UTF-8
    Codec ID : S_TEXT/UTF8
    Codec ID/Info : UTF-8 Plain Text
    Title : Full
    Language : Russian
    Default : No
    Forced : No
    Text #3
    ID : 6
    Format : UTF-8
    Codec ID : S_TEXT/UTF8
    Codec ID/Info : UTF-8 Plain Text
    Title : Full
    Language : Ukrainian
    Default : No
    Forced : No
    Text #4
    ID : 7
    Format : UTF-8
    Codec ID : S_TEXT/UTF8
    Codec ID/Info : UTF-8 Plain Text
    Title : Full
    Language : English
    Default : No
    Forced : No
    Menu
    00:00:00.000 : en:Chapter 01
    00:05:38.838 : en:Chapter 02
    00:10:19.619 : en:Chapter 03
    00:14:58.647 : en:Chapter 04
    00:19:52.524 : en:Chapter 05
    00:27:27.479 : en:Chapter 06
    00:36:14.672 : en:Chapter 07
    00:42:12.988 : en:Chapter 08
    00:49:21.541 : en:Chapter 09
    00:54:10.622 : en:Chapter 10
    01:01:03.785 : en:Chapter 11
    01:10:29.516 : en:Chapter 12
    01:17:11.084 : en:Chapter 13
    01:24:26.227 : en:Chapter 14
    01:30:39.100 : en:Chapter 15
    01:35:16.961 : en:Chapter 16
    01:40:20.931 : en:Chapter 17
    01:45:01.044 : en:Chapter 18
    01:52:26.448 : en:Chapter 19
    01:57:04.058 : en:Chapter 20

    Скриншоты



    Скачать .torrent

    Скачать торрент-файл бесплатно и на максимальной скорости!

    Как скачивать? · Что такое торрент? · Рейтинг и ограничения

    !ВНИМАНИЕ!
    Сайт не распространяет и не хранит электронные версии произведений, а занимается лишь лишь предоставлением доступа к создаваемому пользователями каталогу ссылок на торрент-файлы, которые содержат только списки хеш-сумм, убедительная просьба с жалобами обращаться напрямую к пользователю. Файлы для обмена на трекере предоставлены пользователями сайта, и администрация не несёт ответственности за их содержание. Просьба не заливать файлы, защищенные авторскими правами, а также файлы нелегального содержания!


    _________________
    [Профиль] [ЛС]
    Показать сообщения:    
    Ответить на тему

    Текущее время: Сегодня, в 22:41

    Часовой пояс: GMT + 2



    Вы не можете начинать темы
    Вы не можете отвечать на сообщения
    Вы не можете редактировать свои сообщения
    Вы не можете удалять свои сообщения
    Вы не можете голосовать в опросах
    Вы не можете прикреплять файлы к сообщениям
    Вы не можете скачивать файлы