BitTorrentTracker PerecTracker.org
BitTorrentTracker PerecTracker.org
    
Регистрация  ·  Вход
 
 · 
Забыли пароль?

  • Зной / Swelter (Кит Пармер / Keith Parmer) [2014, США, Боевик, триллер, драма, HDRip] DVO (TV 1000)

    Ответить на тему
     
    Автор Сообщение

    Light

    Создавать темы 09-Апр-2015 13:00

           

    [Цитировать]

    Зной / Swelter
    Страна: США
    Жанр: Боевик, триллер, драма
    Год выпуска: 2014
    Продолжительность: 01:36:01
    Перевод: Профессиональный (двухголосый закадровый) TV 1000
    Cубтитры: нет
    Оригинальная аудиодорожка: нет
    Режиссер: Кит Пармер / Keith Parmer
    В ролях: Ленни Джеймс, Грант Боулер, Каталина Сандино Морено, Альфред Молина, Джош Хендерсон, Жан-Клод Ван Дамм, Минди Робинсон, Фрея Тингли, Брэд Картер, Эбби Миллер
    Описание: История о четырех сбежавших заключенных, которые прибывают в пыльный, маленький городок Калифорнии, где стоит невыносимая жара. Беглецы ищут пятого сбежавшего, который скрылся с $10 миллионами наличными.
    Сэмпл: https://yadi.sk/i/LLQr6_U7fs6hx
    Качество видео: HDRip
    Формат видео: AVI
    Видео: MPEG-4 Visual at 1971 Кбит/сек, 720 x 304 (2.368) at 25.000 fps
    Аудио: Rus AC-3 at 192 Кбит/сек, 2 канала, 48,0 КГц

    MediaInfo

    Общее
    Полное имя : C:\Kino\Rutracker-Razdachi\Зной.2014.HDRip.avi
    Формат : AVI
    Формат/Информация : Audio Video Interleave
    Размер файла : 1,46 Гбайт
    Продолжительность : 1 ч. 36 м.
    Общий поток : 2173 Кбит/сек
    Программа кодирования : VirtualDubMod 1.5.10.2 (build 2540/release)
    Библиотека кодирования : VirtualDubMod build 2540/release
    Видео
    Идентификатор : 0
    Формат : MPEG-4 Visual
    Профиль формата : Advanced Simple@L5
    Параметр BVOP формата : 2
    Параметр QPel формата : Нет
    Параметр GMC формата : Без точки перехода
    Параметр матрицы формата : Default (MPEG)
    Идентификатор кодека : XVID
    Идентификатор кодека/Подсказка : XviD
    Продолжительность : 1 ч. 36 м.
    Битрейт : 1971 Кбит/сек
    Ширина : 720 пикселей
    Высота : 304 пикселя
    Соотношение сторон : 2,35:1
    Частота кадров : 25,000 кадров/сек
    Цветовое пространство : YUV
    Субдискретизация насыщенности : 4:2:0
    Битовая глубина : 8 бит
    Тип развёртки : Прогрессивная
    Метод сжатия : С потерями
    Бит/(Пиксели*Кадры) : 0.360
    Размер потока : 1,32 Гбайт (91%)
    Библиотека кодирования : XviD 1.2.1 (UTC 2008-12-04)
    Аудио
    Идентификатор : 1
    Формат : AC-3
    Формат/Информация : Audio Coding 3
    Расширение режима : CM (complete main)
    Параметр Endianness формата : Big
    Идентификатор кодека : 2000
    Продолжительность : 1 ч. 36 м.
    Вид битрейта : Постоянный
    Битрейт : 192 Кбит/сек
    Каналы : 2 канала
    Расположение каналов : Front: L R
    Частота : 48,0 КГц
    Битовая глубина : 16 бит
    Метод сжатия : С потерями
    Размер потока : 132 Мбайт (9%)
    Выравнивание : Разделение по промежуткам
    Продолжительность промежутка : 40 мс. (1,00 видеокадр)
    Время предзагрузки промежутка : 500 мс.

    Скриншоты

    Скачать .torrent

    Скачать торрент-файл бесплатно и на максимальной скорости!

    Как скачивать? · Что такое торрент? · Рейтинг и ограничения

    !ВНИМАНИЕ!
    Сайт не распространяет и не хранит электронные версии произведений, а занимается лишь лишь предоставлением доступа к создаваемому пользователями каталогу ссылок на торрент-файлы, которые содержат только списки хеш-сумм, убедительная просьба с жалобами обращаться напрямую к пользователю. Файлы для обмена на трекере предоставлены пользователями сайта, и администрация не несёт ответственности за их содержание. Просьба не заливать файлы, защищенные авторскими правами, а также файлы нелегального содержания!


    _________________
    [Профиль] [ЛС]
    Показать сообщения:    
    Ответить на тему

    Текущее время: Сегодня, в 16:06

    Часовой пояс: GMT + 2



    Вы не можете начинать темы
    Вы не можете отвечать на сообщения
    Вы не можете редактировать свои сообщения
    Вы не можете удалять свои сообщения
    Вы не можете голосовать в опросах
    Вы не можете прикреплять файлы к сообщениям
    Вы не можете скачивать файлы